  0
SECTION
  2
HEADER
  9
$ACADVER
  1
AC1015
  9
$ACADMAINTVER
 70
     6
  9
$DWGCODEPAGE
  3
ANSI_932
  9
$INSBASE
 10
0.0
 20
0.0
 30
0.0
  9
$EXTMIN
 10
-565.2000000000002
 20
-414.9068089556921
 30
0.0
  9
$EXTMAX
 10
565.2
 20
414.9068089556921
 30
0.0
  9
$LIMMIN
 10
-210.0
 20
-148.5
  9
$LIMMAX
 10
210.0
 20
148.5
  9
$ORTHOMODE
 70
     0
  9
$REGENMODE
 70
     1
  9
$FILLMODE
 70
     1
  9
$QTEXTMODE
 70
     0
  9
$MIRRTEXT
 70
     1
  9
$LTSCALE
 40
0.25
  9
$ATTMODE
 70
     1
  9
$TEXTSIZE
 40
0.2
  9
$TRACEWID
 40
0.05
  9
$TEXTSTYLE
  7
Standard
  9
$CLAYER
  8
0
  9
$CELTYPE
  6
ByLayer
  9
$CECOLOR
 62
   256
  9
$CELTSCALE
 40
1.0
  9
$DISPSILH
 70
     0
  9
$DIMSCALE
 40
1.0
  9
$DIMASZ
 40
3.000001907348633
  9
$DIMEXO
 40
1.0
  9
$DIMDLI
 40
10.0
  9
$DIMRND
 40
0.0
  9
$DIMDLE
 40
0.0
  9
$DIMEXE
 40
1.0
  9
$DIMTP
 40
0.0
  9
$DIMTM
 40
0.0
  9
$DIMTXT
 40
3.5
  9
$DIMCEN
 40
0.0
  9
$DIMTSZ
 40
0.0
  9
$DIMTOL
 70
     0
  9
$DIMLIM
 70
     0
  9
$DIMTIH
 70
     0
  9
$DIMTOH
 70
     0
  9
$DIMSE1
 70
     0
  9
$DIMSE2
 70
     0
  9
$DIMTAD
 70
     1
  9
$DIMZIN
 70
     8
  9
$DIMBLK
  1

  9
$DIMASO
 70
     1
  9
$DIMSHO
 70
     1
  9
$DIMPOST
  1

  9
$DIMAPOST
  1

  9
$DIMALT
 70
     0
  9
$DIMALTD
 70
     2
  9
$DIMALTF
 40
25.4
  9
$DIMLFAC
 40
1.0
  9
$DIMTOFL
 70
     0
  9
$DIMTVP
 40
0.0
  9
$DIMTIX
 70
     0
  9
$DIMSOXD
 70
     0
  9
$DIMSAH
 70
     0
  9
$DIMBLK1
  1

  9
$DIMBLK2
  1

  9
$DIMSTYLE
  2
Standard
  9
$DIMCLRD
 70
     0
  9
$DIMCLRE
 70
     0
  9
$DIMCLRT
 70
     0
  9
$DIMTFAC
 40
0.65
  9
$DIMGAP
 40
0.09
  9
$DIMJUST
 70
     0
  9
$DIMSD1
 70
     0
  9
$DIMSD2
 70
     0
  9
$DIMTOLJ
 70
     0
  9
$DIMTZIN
 70
     0
  9
$DIMALTZ
 70
     0
  9
$DIMALTTZ
 70
     0
  9
$DIMUPT
 70
     0
  9
$DIMDEC
 70
     2
  9
$DIMTDEC
 70
     2
  9
$DIMALTU
 70
     2
  9
$DIMALTTD
 70
     2
  9
$DIMTXSTY
  7
Standard
  9
$DIMAUNIT
 70
     0
  9
$DIMADEC
 70
     2
  9
$DIMALTRND
 40
0.0
  9
$DIMAZIN
 70
     2
  9
$DIMDSEP
 70
    46
  9
$DIMATFIT
 70
     3
  9
$DIMFRAC
 70
     0
  9
$DIMLDRBLK
  1

  9
$DIMLUNIT
 70
     2
  9
$DIMLWD
 70
    -2
  9
$DIMLWE
 70
    -2
  9
$DIMTMOVE
 70
     0
  9
$LUNITS
 70
     2
  9
$LUPREC
 70
     4
  9
$SKETCHINC
 40
0.1
  9
$FILLETRAD
 40
0.5
  9
$AUNITS
 70
     0
  9
$AUPREC
 70
     0
  9
$MENU
  1
.
  9
$ELEVATION
 40
0.0
  9
$PELEVATION
 40
0.0
  9
$THICKNESS
 40
0.0
  9
$LIMCHECK
 70
     0
  9
$CHAMFERA
 40
0.0
  9
$CHAMFERB
 40
0.0
  9
$CHAMFERC
 40
0.0
  9
$CHAMFERD
 40
0.0
  9
$SKPOLY
 70
     0
  9
$TDCREATE
 40
2458078.453735637
  9
$TDUCREATE
 40
2458078.078735637
  9
$TDUPDATE
 40
2458078.453736864
  9
$TDUUPDATE
 40
2458078.078736864
  9
$TDINDWG
 40
0.0000000116
  9
$TDUSRTIMER
 40
0.0000000116
  9
$USRTIMER
 70
     1
  9
$ANGBASE
 50
0.0
  9
$ANGDIR
 70
     0
  9
$PDMODE
 70
     0
  9
$PDSIZE
 40
1.0
  9
$PLINEWID
 40
0.0
  9
$SPLFRAME
 70
     0
  9
$SPLINETYPE
 70
     6
  9
$SPLINESEGS
 70
     8
  9
$HANDSEED
  5
45F
  9
$SURFTAB1
 70
     6
  9
$SURFTAB2
 70
     6
  9
$SURFTYPE
 70
     6
  9
$SURFU
 70
     6
  9
$SURFV
 70
     6
  9
$UCSBASE
  2

  9
$UCSNAME
  2

  9
$UCSORG
 10
0.0
 20
0.0
 30
0.0
  9
$UCSXDIR
 10
1.0
 20
0.0
 30
0.0
  9
$UCSYDIR
 10
0.0
 20
1.0
 30
0.0
  9
$UCSORTHOREF
  2

  9
$UCSORTHOVIEW
 70
     0
  9
$UCSORGTOP
 10
0.0
 20
0.0
 30
0.0
  9
$UCSORGBOTTOM
 10
0.0
 20
0.0
 30
0.0
  9
$UCSORGLEFT
 10
0.0
 20
0.0
 30
0.0
  9
$UCSORGRIGHT
 10
0.0
 20
0.0
 30
0.0
  9
$UCSORGFRONT
 10
0.0
 20
0.0
 30
0.0
  9
$UCSORGBACK
 10
0.0
 20
0.0
 30
0.0
  9
$PUCSBASE
  2

  9
$PUCSNAME
  2

  9
$PUCSORG
 10
0.0
 20
0.0
 30
0.0
  9
$PUCSXDIR
 10
1.0
 20
0.0
 30
0.0
  9
$PUCSYDIR
 10
0.0
 20
1.0
 30
0.0
  9
$PUCSORTHOREF
  2

  9
$PUCSORTHOVIEW
 70
     0
  9
$PUCSORGTOP
 10
0.0
 20
0.0
 30
0.0
  9
$PUCSORGBOTTOM
 10
0.0
 20
0.0
 30
0.0
  9
$PUCSORGLEFT
 10
0.0
 20
0.0
 30
0.0
  9
$PUCSORGRIGHT
 10
0.0
 20
0.0
 30
0.0
  9
$PUCSORGFRONT
 10
0.0
 20
0.0
 30
0.0
  9
$PUCSORGBACK
 10
0.0
 20
0.0
 30
0.0
  9
$USERI1
 70
     0
  9
$USERI2
 70
     0
  9
$USERI3
 70
     0
  9
$USERI4
 70
     0
  9
$USERI5
 70
     0
  9
$USERR1
 40
0.0
  9
$USERR2
 40
0.0
  9
$USERR3
 40
0.0
  9
$USERR4
 40
0.0
  9
$USERR5
 40
0.0
  9
$WORLDVIEW
 70
     1
  9
$SHADEDGE
 70
     3
  9
$SHADEDIF
 70
    70
  9
$TILEMODE
 70
     1
  9
$MAXACTVP
 70
    64
  9
$PINSBASE
 10
0.0
 20
0.0
 30
0.0
  9
$PLIMCHECK
 70
     0
  9
$PEXTMIN
 10
1.000000000000000E+20
 20
1.000000000000000E+20
 30
1.000000000000000E+20
  9
$PEXTMAX
 10
-1.000000000000000E+20
 20
-1.000000000000000E+20
 30
-1.000000000000000E+20
  9
$PLIMMIN
 10
0.0
 20
0.0
  9
$PLIMMAX
 10
12.0
 20
9.0
  9
$UNITMODE
 70
     0
  9
$VISRETAIN
 70
     0
  9
$PLINEGEN
 70
     1
  9
$PSLTSCALE
 70
     0
  9
$TREEDEPTH
 70
  3020
  9
$CMLSTYLE
  2
Standard
  9
$CMLJUST
 70
     0
  9
$CMLSCALE
 40
1.0
  9
$PROXYGRAPHICS
 70
     0
  9
$MEASUREMENT
 70
     1
  9
$CELWEIGHT
370
    -1
  9
$ENDCAPS
280
     0
  9
$JOINSTYLE
280
     0
  9
$LWDISPLAY
290
     1
  9
$INSUNITS
 70
     4
  9
$HYPERLINKBASE
  1

  9
$STYLESHEET
  1

  9
$XEDIT
290
     1
  9
$CEPSNTYPE
380
     0
  9
$PSTYLEMODE
290
     1
  9
$FINGERPRINTGUID
  2
{156EE17B-463A-4821-A3B0-35FEF47EC0AF}
  9
$VERSIONGUID
  2
{FAEB1C32-E019-11D5-929B-00C0DF256EC4}
  9
$EXTNAMES
290
     1
  9
$PSVPSCALE
 40
0.0
  9
$OLESTARTUP
290
     0
  0
ENDSEC
  0
SECTION
  2
CLASSES
  0
CLASS
  1
ACDBDICTIONARYWDFLT
  2
AcDbDictionaryWithDefault
  3
ObjectDBX Classes
 90
        0
280
     0
281
     0
  0
CLASS
  1
VISUALSTYLE
  2
AcDbVisualStyle
  3
ObjectDBX Classes
 90
     4095
280
     0
281
     0
  0
CLASS
  1
MATERIAL
  2
AcDbMaterial
  3
ObjectDBX Classes
 90
     1153
280
     0
281
     0
  0
CLASS
  1
SCALE
  2
AcDbScale
  3
ObjectDBX Classes
 90
     1153
280
     0
281
     0
  0
CLASS
  1
SUN
  2
AcDbSun
  3
SCENEOE
 90
     1153
280
     0
281
     0
  0
CLASS
  1
DICTIONARYVAR
  2
AcDbDictionaryVar
  3
ObjectDBX Classes
 90
        0
280
     0
281
     0
  0
CLASS
  1
ACDBPLACEHOLDER
  2
AcDbPlaceHolder
  3
ObjectDBX Classes
 90
        0
280
     0
281
     0
  0
CLASS
  1
LAYOUT
  2
AcDbLayout
  3
ObjectDBX Classes
 90
        0
280
     0
281
     0
  0
ENDSEC
  0
SECTION
  2
TABLES
  0
TABLE
  2
VPORT
  5
8
102
{ACAD_XDICTIONARY
360
424
102
}
330
0
100
AcDbSymbolTable
 70
     1
  0
VPORT
  5
29
330
8
100
AcDbSymbolTableRecord
100
AcDbViewportTableRecord
  2
*Active
 70
     0
 10
0.0
 20
0.0
 11
1.0
 21
1.0
 12
-0.000000000000032
 22
-0.3576824436699724
 13
0.0
 23
0.0
 14
0.5
 24
0.5
 15
0.5
 25
0.5
 16
0.0
 26
0.0
 36
1.0
 17
0.0
 27
0.0
 37
0.0
 40
281.4069579047839
 41
1.365765803594817
 42
50.0
 43
0.0
 44
0.0
 50
0.0
 51
0.0
 71
     0
 72
  1000
 73
     1
 74
     1
 75
     0
 76
     0
 77
     0
 78
     0
281
     0
 65
     1
110
0.0
120
0.0
130
0.0
111
1.0
121
0.0
131
0.0
112
0.0
122
1.0
132
0.0
 79
     0
146
0.0
  0
ENDTAB
  0
TABLE
  2
LTYPE
  5
5
330
0
100
AcDbSymbolTable
 70
    67
  0
LTYPE
  5
14
330
5
100
AcDbSymbolTableRecord
100
AcDbLinetypeTableRecord
  2
ByBlock
 70
     0
  3

 72
    65
 73
     0
 40
0.0
  0
LTYPE
  5
15
330
5
100
AcDbSymbolTableRecord
100
AcDbLinetypeTableRecord
  2
ByLayer
 70
     0
  3

 72
    65
 73
     0
 40
0.0
  0
LTYPE
  5
16
330
5
100
AcDbSymbolTableRecord
100
AcDbLinetypeTableRecord
  2
Continuous
 70
     0
  3
Solid line
 72
    65
 73
     0
 40
0.0
  0
LTYPE
  5
6B
330
5
100
AcDbSymbolTableRecord
100
AcDbLinetypeTableRecord
  2
HIDDENX2
 70
     0
  3
Hidden (2x) ____ ____ ____ ____ ____ ____ ____ 
 72
    65
 73
     2
 40
19.05
 49
12.7
 74
     0
 49
-6.35
 74
     0
  0
LTYPE
  5
6C
330
5
100
AcDbSymbolTableRecord
100
AcDbLinetypeTableRecord
  2
HIDDEN
 70
     0
  3
Hidden __ __ __ __ __ __ __ __ __ __ __ __ __ __
 72
    65
 73
     2
 40
9.524999999999999
 49
6.35
 74
     0
 49
-3.175
 74
     0
  0
LTYPE
  5
6D
330
5
100
AcDbSymbolTableRecord
100
AcDbLinetypeTableRecord
  2
HIDDEN2
 70
     0
  3
Hidden (.5x) _ _ _ _ _ _ _ _ _ _ _ _ _ _ _ _ _ 
 72
    65
 73
     2
 40
4.762499999999999
 49
3.175
 74
     0
 49
-1.5875
 74
     0
  0
LTYPE
  5
6E
330
5
100
AcDbSymbolTableRecord
100
AcDbLinetypeTableRecord
  2
DASHED
 70
     0
  3
Dashed __ __ __ __ __ __ __ __ __ __ __ __ __ _
 72
    65
 73
     2
 40
19.05
 49
12.7
 74
     0
 49
-6.35
 74
     0
  0
LTYPE
  5
6F
330
5
100
AcDbSymbolTableRecord
100
AcDbLinetypeTableRecord
  2
DASHED2
 70
     0
  3
Dashed (.5x) _ _ _ _ _ _ _ _ _ _ _ _ _ _ _ _ _ 
 72
    65
 73
     2
 40
9.524999999999999
 49
6.35
 74
     0
 49
-3.175
 74
     0
  0
LTYPE
  5
70
330
5
100
AcDbSymbolTableRecord
100
AcDbLinetypeTableRecord
  2
DASHEDX2
 70
     0
  3
Dashed (2x) ____  ____  ____  ____  ____  ___
 72
    65
 73
     2
 40
38.09999999999999
 49
25.4
 74
     0
 49
-12.7
 74
     0
  0
LTYPE
  5
71
330
5
100
AcDbSymbolTableRecord
100
AcDbLinetypeTableRecord
  2
DOTX2
 70
     0
  3
Dot (2x) .  .  .  .  .  .  .  .  .  .  .  .  .  .
 72
    65
 73
     2
 40
12.7
 49
0.0
 74
     0
 49
-12.7
 74
     0
  0
LTYPE
  5
72
330
5
100
AcDbSymbolTableRecord
100
AcDbLinetypeTableRecord
  2
DOT
 70
     0
  3
Dot . . . . . . . . . . . . . . . . . . . . . . . .
 72
    65
 73
     2
 40
6.35
 49
0.0
 74
     0
 49
-6.35
 74
     0
  0
LTYPE
  5
73
330
5
100
AcDbSymbolTableRecord
100
AcDbLinetypeTableRecord
  2
DOT2
 70
     0
  3
Dot (.5x) ........................................
 72
    65
 73
     2
 40
3.175
 49
0.0
 74
     0
 49
-3.175
 74
     0
  0
LTYPE
  5
74
330
5
100
AcDbSymbolTableRecord
100
AcDbLinetypeTableRecord
  2
CENTERX2
 70
     0
  3
Center (2x) ________  __  ________  __  _____
 72
    65
 73
     4
 40
101.6
 49
63.5
 74
     0
 49
-12.7
 74
     0
 49
12.7
 74
     0
 49
-12.7
 74
     0
  0
LTYPE
  5
75
330
5
100
AcDbSymbolTableRecord
100
AcDbLinetypeTableRecord
  2
CENTER
 70
     0
  3
Center ____ _ ____ _ ____ _ ____ _ ____ _ ____
 72
    65
 73
     4
 40
50.8
 49
31.75
 74
     0
 49
-6.35
 74
     0
 49
6.35
 74
     0
 49
-6.35
 74
     0
  0
LTYPE
  5
76
330
5
100
AcDbSymbolTableRecord
100
AcDbLinetypeTableRecord
  2
CENTER2
 70
     0
  3
Center (.5x) ___ _ ___ _ ___ _ ___ _ ___ _ ___
 72
    65
 73
     4
 40
28.575
 49
19.05
 74
     0
 49
-3.175
 74
     0
 49
3.175
 74
     0
 49
-3.175
 74
     0
  0
LTYPE
  5
77
330
5
100
AcDbSymbolTableRecord
100
AcDbLinetypeTableRecord
  2
DASHDOTX2
 70
     0
  3
Dash dot (2x) ____  .  ____  .  ____  .  ___
 72
    65
 73
     4
 40
50.8
 49
25.4
 74
     0
 49
-12.7
 74
     0
 49
0.0
 74
     0
 49
-12.7
 74
     0
  0
LTYPE
  5
78
330
5
100
AcDbSymbolTableRecord
100
AcDbLinetypeTableRecord
  2
DASHDOT
 70
     0
  3
Dash dot __ . __ . __ . __ . __ . __ . __ . __
 72
    65
 73
     4
 40
25.4
 49
12.7
 74
     0
 49
-6.35
 74
     0
 49
0.0
 74
     0
 49
-6.35
 74
     0
  0
LTYPE
  5
79
330
5
100
AcDbSymbolTableRecord
100
AcDbLinetypeTableRecord
  2
DASHDOT2
 70
     0
  3
Dash dot (.5x) _._._._._._._._._._._._._._._.
 72
    65
 73
     4
 40
12.7
 49
6.35
 74
     0
 49
-3.175
 74
     0
 49
0.0
 74
     0
 49
-3.175
 74
     0
  0
LTYPE
  5
7A
330
5
100
AcDbSymbolTableRecord
100
AcDbLinetypeTableRecord
  2
DIVIDEX2
 70
     0
  3
Divide (2x) ________  .  .  ________  .  .  _
 72
    65
 73
     6
 40
63.5
 49
25.4
 74
     0
 49
-12.7
 74
     0
 49
0.0
 74
     0
 49
-12.7
 74
     0
 49
0.0
 74
     0
 49
-12.7
 74
     0
  0
LTYPE
  5
7B
330
5
100
AcDbSymbolTableRecord
100
AcDbLinetypeTableRecord
  2
DIVIDE
 70
     0
  3
Divide ____ . . ____ . . ____ . . ____ . . ____
 72
    65
 73
     6
 40
31.75
 49
12.7
 74
     0
 49
-6.35
 74
     0
 49
0.0
 74
     0
 49
-6.35
 74
     0
 49
0.0
 74
     0
 49
-6.35
 74
     0
  0
LTYPE
  5
7C
330
5
100
AcDbSymbolTableRecord
100
AcDbLinetypeTableRecord
  2
DIVIDE2
 70
     0
  3
Divide (.5x) __..__..__..__..__..__..__..__.._
 72
    65
 73
     6
 40
15.875
 49
6.35
 74
     0
 49
-3.175
 74
     0
 49
0.0
 74
     0
 49
-3.175
 74
     0
 49
0.0
 74
     0
 49
-3.175
 74
     0
  0
LTYPE
  5
7D
330
5
100
AcDbSymbolTableRecord
100
AcDbLinetypeTableRecord
  2
BORDERX2
 70
     0
  3
Border (2x) ____  ____  .  ____  ____  .  ___
 72
    65
 73
     6
 40
88.89999999999999
 49
25.4
 74
     0
 49
-12.7
 74
     0
 49
25.4
 74
     0
 49
-12.7
 74
     0
 49
0.0
 74
     0
 49
-12.7
 74
     0
  0
LTYPE
  5
7E
330
5
100
AcDbSymbolTableRecord
100
AcDbLinetypeTableRecord
  2
BORDER
 70
     0
  3
Border __ __ . __ __ . __ __ . __ __ . __ __ .
 72
    65
 73
     6
 40
44.45
 49
12.7
 74
     0
 49
-6.35
 74
     0
 49
12.7
 74
     0
 49
-6.35
 74
     0
 49
0.0
 74
     0
 49
-6.35
 74
     0
  0
LTYPE
  5
7F
330
5
100
AcDbSymbolTableRecord
100
AcDbLinetypeTableRecord
  2
BORDER2
 70
     0
  3
Border (.5x) __.__.__.__.__.__.__.__.__.__.__.
 72
    65
 73
     6
 40
22.225
 49
6.35
 74
     0
 49
-3.175
 74
     0
 49
6.35
 74
     0
 49
-3.175
 74
     0
 49
0.0
 74
     0
 49
-3.175
 74
     0
  0
LTYPE
  5
80
330
5
100
AcDbSymbolTableRecord
100
AcDbLinetypeTableRecord
  2
PHANTOMX2
 70
     0
  3
Phantom (2x) ____________    ____    ____   _
 72
    65
 73
     6
 40
127.0
 49
63.5
 74
     0
 49
-12.7
 74
     0
 49
12.7
 74
     0
 49
-12.7
 74
     0
 49
12.7
 74
     0
 49
-12.7
 74
     0
  0
LTYPE
  5
81
330
5
100
AcDbSymbolTableRecord
100
AcDbLinetypeTableRecord
  2
PHANTOM
 70
     0
  3
Phantom ______  __  __  ______  __  __  ______ 
 72
    65
 73
     6
 40
63.5
 49
31.75
 74
     0
 49
-6.35
 74
     0
 49
6.35
 74
     0
 49
-6.35
 74
     0
 49
6.35
 74
     0
 49
-6.35
 74
     0
  0
LTYPE
  5
82
330
5
100
AcDbSymbolTableRecord
100
AcDbLinetypeTableRecord
  2
PHANTOM2
 70
     0
  3
Phantom (.5x) ___ _ _ ___ _ _ ___ _ _ ___ _ _
 72
    65
 73
     6
 40
31.75
 49
15.875
 74
     0
 49
-3.175
 74
     0
 49
3.175
 74
     0
 49
-3.175
 74
     0
 49
3.175
 74
     0
 49
-3.175
 74
     0
  0
LTYPE
  5
83
330
5
100
AcDbSymbolTableRecord
100
AcDbLinetypeTableRecord
  2
ACAD_ISO06W100
 70
     0
  3
ISO long-dash triple-dot ____ ... ____ ... ____
 72
    65
 73
     8
 40
36.0
 49
24.0
 74
     0
 49
-3.0
 74
     0
 49
0.0
 74
     0
 49
-3.0
 74
     0
 49
0.0
 74
     0
 49
-3.0
 74
     0
 49
0.0
 74
     0
 49
-3.0
 74
     0
  0
LTYPE
  5
84
330
5
100
AcDbSymbolTableRecord
100
AcDbLinetypeTableRecord
  2
ACAD_ISO13W100
 70
     0
  3
ISO double-dash double-dot __ __ . . __ __ . . _
 72
    65
 73
     8
 40
36.0
 49
12.0
 74
     0
 49
-3.0
 74
     0
 49
12.0
 74
     0
 49
-3.0
 74
     0
 49
0.0
 74
     0
 49
-3.0
 74
     0
 49
0.0
 74
     0
 49
-3.0
 74
     0
  0
LTYPE
  5
85
330
5
100
AcDbSymbolTableRecord
100
AcDbLinetypeTableRecord
  2
ACAD_ISO14W100
 70
     0
  3
ISO dash triple-dot __ . . . __ . . . __ . . . _
 72
    65
 73
     8
 40
24.0
 49
12.0
 74
     0
 49
-3.0
 74
     0
 49
0.0
 74
     0
 49
-3.0
 74
     0
 49
0.0
 74
     0
 49
-3.0
 74
     0
 49
0.0
 74
     0
 49
-3.0
 74
     0
  0
LTYPE
  5
86
330
5
100
AcDbSymbolTableRecord
100
AcDbLinetypeTableRecord
  2
ACAD_ISO02W100
 70
     0
  3
ISO dash __ __ __ __ __ __ __ __ __ __ __ __ __
 72
    65
 73
     2
 40
15.0
 49
12.0
 74
     0
 49
-3.0
 74
     0
  0
LTYPE
  5
87
330
5
100
AcDbSymbolTableRecord
100
AcDbLinetypeTableRecord
  2
ACAD_ISO03W100
 70
     0
  3
ISO dash space __    __    __    __    __    __
 72
    65
 73
     2
 40
30.0
 49
12.0
 74
     0
 49
-18.0
 74
     0
  0
LTYPE
  5
88
330
5
100
AcDbSymbolTableRecord
100
AcDbLinetypeTableRecord
  2
ACAD_ISO04W100
 70
     0
  3
ISO long-dash dot ____ . ____ . ____ . ____ . _
 72
    65
 73
     4
 40
30.0
 49
24.0
 74
     0
 49
-3.0
 74
     0
 49
0.0
 74
     0
 49
-3.0
 74
     0
  0
LTYPE
  5
89
330
5
100
AcDbSymbolTableRecord
100
AcDbLinetypeTableRecord
  2
ACAD_ISO05W100
 70
     0
  3
ISO long-dash double-dot ____ .. ____ .. ____ . 
 72
    65
 73
     6
 40
33.0
 49
24.0
 74
     0
 49
-3.0
 74
     0
 49
0.0
 74
     0
 49
-3.0
 74
     0
 49
0.0
 74
     0
 49
-3.0
 74
     0
  0
LTYPE
  5
8A
330
5
100
AcDbSymbolTableRecord
100
AcDbLinetypeTableRecord
  2
ACAD_ISO07W100
 70
     0
  3
ISO dot . . . . . . . . . . . . . . . . . . . . 
 72
    65
 73
     2
 40
3.0
 49
0.0
 74
     0
 49
-3.0
 74
     0
  0
LTYPE
  5
8B
330
5
100
AcDbSymbolTableRecord
100
AcDbLinetypeTableRecord
  2
ACAD_ISO08W100
 70
     0
  3
ISO long-dash short-dash ____ __ ____ __ ____ _
 72
    65
 73
     4
 40
36.0
 49
24.0
 74
     0
 49
-3.0
 74
     0
 49
6.0
 74
     0
 49
-3.0
 74
     0
  0
LTYPE
  5
8C
330
5
100
AcDbSymbolTableRecord
100
AcDbLinetypeTableRecord
  2
ACAD_ISO09W100
 70
     0
  3
ISO long-dash double-short-dash ____ __ __ ____
 72
    65
 73
     6
 40
45.0
 49
24.0
 74
     0
 49
-3.0
 74
     0
 49
6.0
 74
     0
 49
-3.0
 74
     0
 49
6.0
 74
     0
 49
-3.0
 74
     0
  0
LTYPE
  5
8D
330
5
100
AcDbSymbolTableRecord
100
AcDbLinetypeTableRecord
  2
ACAD_ISO10W100
 70
     0
  3
ISO dash dot __ . __ . __ . __ . __ . __ . __ . 
 72
    65
 73
     4
 40
18.0
 49
12.0
 74
     0
 49
-3.0
 74
     0
 49
0.0
 74
     0
 49
-3.0
 74
     0
  0
LTYPE
  5
8E
330
5
100
AcDbSymbolTableRecord
100
AcDbLinetypeTableRecord
  2
ACAD_ISO11W100
 70
     0
  3
ISO double-dash dot __ __ . __ __ . __ __ . __ _
 72
    65
 73
     6
 40
33.0
 49
12.0
 74
     0
 49
-3.0
 74
     0
 49
12.0
 74
     0
 49
-3.0
 74
     0
 49
0.0
 74
     0
 49
-3.0
 74
     0
  0
LTYPE
  5
8F
330
5
100
AcDbSymbolTableRecord
100
AcDbLinetypeTableRecord
  2
ACAD_ISO12W100
 70
     0
  3
ISO dash double-dot __ . . __ . . __ . . __ . . 
 72
    65
 73
     6
 40
21.0
 49
12.0
 74
     0
 49
-3.0
 74
     0
 49
0.0
 74
     0
 49
-3.0
 74
     0
 49
0.0
 74
     0
 49
-3.0
 74
     0
  0
LTYPE
  5
90
330
5
100
AcDbSymbolTableRecord
100
AcDbLinetypeTableRecord
  2
ACAD_ISO15W100
 70
     0
  3
ISO double-dash triple-dot __ __ . . . __ __ . .
 72
    65
 73
    10
 40
39.0
 49
12.0
 74
     0
 49
-3.0
 74
     0
 49
12.0
 74
     0
 49
-3.0
 74
     0
 49
0.0
 74
     0
 49
-3.0
 74
     0
 49
0.0
 74
     0
 49
-3.0
 74
     0
 49
0.0
 74
     0
 49
-3.0
 74
     0
  0
LTYPE
  5
91
330
5
100
AcDbSymbolTableRecord
100
AcDbLinetypeTableRecord
  2
JIS_02_0.7
 70
     0
  3
HIDDEN0.75 _ _ _ _ _ _ _ _ _ _ _ _ _ _ _ _ _ 
 72
    65
 73
     2
 40
1.35
 49
0.75
 74
     0
 49
-0.6
 74
     0
  0
LTYPE
  5
92
330
5
100
AcDbSymbolTableRecord
100
AcDbLinetypeTableRecord
  2
JIS_02_1.0
 70
     0
  3
HIDDEN01 _ _ _ _ _ _ _ _ _ _ _ _ _ _ _ _ _ 
 72
    65
 73
     2
 40
2.0
 49
1.0
 74
     0
 49
-1.0
 74
     0
  0
LTYPE
  5
93
330
5
100
AcDbSymbolTableRecord
100
AcDbLinetypeTableRecord
  2
JIS_02_1.2
 70
     0
  3
HIDDEN01.25  _ _ _ _ _ _ _ _ _ _ _ _ _ _ _ _ _ 
 72
    65
 73
     2
 40
2.5
 49
1.25
 74
     0
 49
-1.25
 74
     0
  0
LTYPE
  5
94
330
5
100
AcDbSymbolTableRecord
100
AcDbLinetypeTableRecord
  2
JIS_02_2.0
 70
     0
  3
HIDDEN02 __ __ __ __ __ __ __ __ __ __ __ 
 72
    65
 73
     2
 40
3.0
 49
2.0
 74
     0
 49
-1.0
 74
     0
  0
LTYPE
  5
95
330
5
100
AcDbSymbolTableRecord
100
AcDbLinetypeTableRecord
  2
JIS_02_4.0
 70
     0
  3
HIDDEN04 ____ ____ ____ ____ ____ ____ ____ 
 72
    65
 73
     2
 40
5.5
 49
4.0
 74
     0
 49
-1.5
 74
     0
  0
LTYPE
  5
96
330
5
100
AcDbSymbolTableRecord
100
AcDbLinetypeTableRecord
  2
JIS_08_11
 70
     0
  3
1SASEN11 ___ _ ___ _ ___ _ ___ _ ___ _ ___
 72
    65
 73
     4
 40
12.8
 49
11.0
 74
     0
 49
-0.6
 74
     0
 49
0.6
 74
     0
 49
-0.6
 74
     0
  0
LTYPE
  5
97
330
5
100
AcDbSymbolTableRecord
100
AcDbLinetypeTableRecord
  2
JIS_08_15
 70
     0
  3
1SASEN15 ____ _ ____ _ ____ _ ____ _ ____ 
 72
    65
 73
     4
 40
17.25
 49
15.0
 74
     0
 49
-0.75
 74
     0
 49
0.75
 74
     0
 49
-0.75
 74
     0
  0
LTYPE
  5
98
330
5
100
AcDbSymbolTableRecord
100
AcDbLinetypeTableRecord
  2
JIS_08_25
 70
     0
  3
1SASEN25 ________  __  ________  __  _____
 72
    65
 73
     4
 40
28.0
 49
25.0
 74
     0
 49
-1.125
 74
     0
 49
0.75
 74
     0
 49
-1.125
 74
     0
  0
LTYPE
  5
99
330
5
100
AcDbSymbolTableRecord
100
AcDbLinetypeTableRecord
  2
JIS_08_37
 70
     0
  3
1SASEN37 ________  __  ________  __  _____
 72
    65
 73
     4
 40
40.5
 49
37.5
 74
     0
 49
-1.125
 74
     0
 49
0.75
 74
     0
 49
-1.125
 74
     0
  0
LTYPE
  5
9A
330
5
100
AcDbSymbolTableRecord
100
AcDbLinetypeTableRecord
  2
JIS_08_50
 70
     0
  3
1SASEN50 _______________  __  ____________
 72
    65
 73
     4
 40
53.0
 49
50.0
 74
     0
 49
-1.125
 74
     0
 49
0.75
 74
     0
 49
-1.125
 74
     0
  0
LTYPE
  5
9B
330
5
100
AcDbSymbolTableRecord
100
AcDbLinetypeTableRecord
  2
JIS_09_08
 70
     0
  3
2SASEN8 __ _ _ __ _ _ __ _ _ __ _ _ __ _ _ 
 72
    65
 73
     6
 40
10.75
 49
8.0
 74
     0
 49
-0.55
 74
     0
 49
0.55
 74
     0
 49
-0.55
 74
     0
 49
0.55
 74
     0
 49
-0.55
 74
     0
  0
LTYPE
  5
9C
330
5
100
AcDbSymbolTableRecord
100
AcDbLinetypeTableRecord
  2
JIS_09_15
 70
     0
  3
2SASEN15 ___ _ _ ___ _ _ ___ _ _ ___ _ _ ___ 
 72
    65
 73
     6
 40
18.9
 49
15.0
 74
     0
 49
-0.9
 74
     0
 49
0.6
 74
     0
 49
-0.9
 74
     0
 49
0.6
 74
     0
 49
-0.9
 74
     0
  0
LTYPE
  5
9D
330
5
100
AcDbSymbolTableRecord
100
AcDbLinetypeTableRecord
  2
JIS_09_29
 70
     0
  3
2SASEN29 ______　__  __  ______　__  __  ___
 72
    65
 73
     6
 40
34.0
 49
29.0
 74
     0
 49
-1.2
 74
     0
 49
0.7
 74
     0
 49
-1.2
 74
     0
 49
0.7
 74
     0
 49
-1.2
 74
     0
  0
LTYPE
  5
9E
330
5
100
AcDbSymbolTableRecord
100
AcDbLinetypeTableRecord
  2
JIS_09_50
 70
     0
  3
2SASEN50 ____________　__  __  _____________
 72
    65
 73
     6
 40
55.0
 49
50.0
 74
     0
 49
-1.2
 74
     0
 49
0.7
 74
     0
 49
-1.2
 74
     0
 49
0.7
 74
     0
 49
-1.2
 74
     0
  0
LTYPE
  5
9F
330
5
100
AcDbSymbolTableRecord
100
AcDbLinetypeTableRecord
  2
SXF_破線
 70
     0
  3
02 dashed -- -- -- -- -- --
 72
    65
 73
     2
 40
7.5
 49
6.0
 74
     0
 49
-1.5
 74
     0
  0
LTYPE
  5
A0
330
5
100
AcDbSymbolTableRecord
100
AcDbLinetypeTableRecord
  2
SXF_跳び破線
 70
     0
  3
03 dashed_spaced --  --  --  --
 72
    65
 73
     2
 40
12.0
 49
6.0
 74
     0
 49
-6.0
 74
     0
  0
LTYPE
  5
A1
330
5
100
AcDbSymbolTableRecord
100
AcDbLinetypeTableRecord
  2
SXF_一点長鎖線
 70
     0
  3
04 long_dashed_dotted ---- . ---- . ----
 72
    65
 73
     4
 40
15.25
 49
12.0
 74
     0
 49
-1.5
 74
     0
 49
0.25
 74
     0
 49
-1.5
 74
     0
  0
LTYPE
  5
A2
330
5
100
AcDbSymbolTableRecord
100
AcDbLinetypeTableRecord
  2
SXF_二点長鎖線
 70
     0
  3
05 long_dashed_double-dotted ---- . . ---- 
 72
    65
 73
     6
 40
17.0
 49
12.0
 74
     0
 49
-1.5
 74
     0
 49
0.25
 74
     0
 49
-1.5
 74
     0
 49
0.25
 74
     0
 49
-1.5
 74
     0
  0
LTYPE
  5
A3
330
5
100
AcDbSymbolTableRecord
100
AcDbLinetypeTableRecord
  2
SXF_三点長鎖線
 70
     0
  3
06 long_dashed_triplicate-dotted ---- ... ---- 
 72
    65
 73
     8
 40
18.75
 49
12.0
 74
     0
 49
-1.5
 74
     0
 49
0.25
 74
     0
 49
-1.5
 74
     0
 49
0.25
 74
     0
 49
-1.5
 74
     0
 49
0.25
 74
     0
 49
-1.5
 74
     0
  0
LTYPE
  5
A4
330
5
100
AcDbSymbolTableRecord
100
AcDbLinetypeTableRecord
  2
SXF_点線
 70
     0
  3
07 dotted . . . . . . . . . . . . 
 72
    65
 73
     2
 40
1.75
 49
0.25
 74
     0
 49
-1.5
 74
     0
  0
LTYPE
  5
A5
330
5
100
AcDbSymbolTableRecord
100
AcDbLinetypeTableRecord
  2
SXF_一点鎖線
 70
     0
  3
08 chain ---- - --- - --- - ---
 72
    65
 73
     4
 40
18.5
 49
12.0
 74
     0
 49
-1.5
 74
     0
 49
3.5
 74
     0
 49
-1.5
 74
     0
  0
LTYPE
  5
A6
330
5
100
AcDbSymbolTableRecord
100
AcDbLinetypeTableRecord
  2
SXF_二点鎖線
 70
     0
  3
09 chain_double_dash ---- - - ---- - - ----
 72
    65
 73
     6
 40
23.5
 49
12.0
 74
     0
 49
-1.5
 74
     0
 49
3.5
 74
     0
 49
-1.5
 74
     0
 49
3.5
 74
     0
 49
-1.5
 74
     0
  0
LTYPE
  5
A7
330
5
100
AcDbSymbolTableRecord
100
AcDbLinetypeTableRecord
  2
SXF_一点短鎖線
 70
     0
  3
10 dashed_dotted -- . -- . -- . --
 72
    65
 73
     4
 40
9.25
 49
6.0
 74
     0
 49
-1.5
 74
     0
 49
0.25
 74
     0
 49
-1.5
 74
     0
  0
LTYPE
  5
A8
330
5
100
AcDbSymbolTableRecord
100
AcDbLinetypeTableRecord
  2
SXF_一点二短鎖線
 70
     0
  3
11 double-dashed_dotted -- -- . -- --
 72
    65
 73
     6
 40
16.75
 49
6.0
 74
     0
 49
-1.5
 74
     0
 49
6.0
 74
     0
 49
-1.5
 74
     0
 49
0.25
 74
     0
 49
-1.5
 74
     0
  0
LTYPE
  5
A9
330
5
100
AcDbSymbolTableRecord
100
AcDbLinetypeTableRecord
  2
SXF_二点短鎖線
 70
     0
  3
12 dashed_double_dotted -- . . -- . . --
 72
    65
 73
     6
 40
11.0
 49
6.0
 74
     0
 49
-1.5
 74
     0
 49
0.25
 74
     0
 49
-1.5
 74
     0
 49
0.25
 74
     0
 49
-1.5
 74
     0
  0
LTYPE
  5
AA
330
5
100
AcDbSymbolTableRecord
100
AcDbLinetypeTableRecord
  2
SXF_二点二短鎖線
 70
     0
  3
13 double-dashed_double-dotted -- -- . . -- --
 72
    65
 73
     8
 40
18.5
 49
6.0
 74
     0
 49
-1.5
 74
     0
 49
6.0
 74
     0
 49
-1.5
 74
     0
 49
0.25
 74
     0
 49
-1.5
 74
     0
 49
0.25
 74
     0
 49
-1.5
 74
     0
  0
LTYPE
  5
AB
330
5
100
AcDbSymbolTableRecord
100
AcDbLinetypeTableRecord
  2
SXF_三点短鎖線
 70
     0
  3
14 dashed triplicate-dotted -- . . . -- . . . --
 72
    65
 73
     8
 40
12.75
 49
6.0
 74
     0
 49
-1.5
 74
     0
 49
0.25
 74
     0
 49
-1.5
 74
     0
 49
0.25
 74
     0
 49
-1.5
 74
     0
 49
0.25
 74
     0
 49
-1.5
 74
     0
  0
LTYPE
  5
AC
330
5
100
AcDbSymbolTableRecord
100
AcDbLinetypeTableRecord
  2
SXF_三点二短鎖線
 70
     0
  3
15 double-dashed triplicate-dotted -- -- . . . -- -- 
 72
    65
 73
    10
 40
20.25
 49
6.0
 74
     0
 49
-1.5
 74
     0
 49
6.0
 74
     0
 49
-1.5
 74
     0
 49
0.25
 74
     0
 49
-1.5
 74
     0
 49
0.25
 74
     0
 49
-1.5
 74
     0
 49
0.25
 74
     0
 49
-1.5
 74
     0
  0
ENDTAB
  0
TABLE
  2
LAYER
  5
2
330
0
100
AcDbSymbolTable
 70
     2
  0
LAYER
  5
10
330
2
100
AcDbSymbolTableRecord
100
AcDbLayerTableRecord
  2
0
 70
     0
 62
     7
  6
Continuous
370
    -3
390
F
  0
LAYER
  5
AD
330
2
100
AcDbSymbolTableRecord
100
AcDbLayerTableRecord
  2
ZUWAKU
 70
     0
 62
     7
  6
Continuous
370
    -3
390
F
  0
ENDTAB
  0
TABLE
  2
STYLE
  5
3
330
0
100
AcDbSymbolTable
 70
     3
  0
STYLE
  5
11
330
3
100
AcDbSymbolTableRecord
100
AcDbTextStyleTableRecord
  2
Standard
 70
     0
 40
0.0
 41
1.0
 50
0.0
 71
     0
 42
0.2
  3
txt.shx
  4
bigfont.shx
  0
STYLE
  5
160
330
3
100
AcDbSymbolTableRecord
100
AcDbTextStyleTableRecord
  2
dcStyle0
 70
     0
 40
0.0
 41
0.75
 50
0.0
 71
     0
 42
0.2
  3
ＭＳ ゴシック
  4

1001
ACAD
1000
ＭＳ ゴシック
1071
    32802
  0
STYLE
  5
367
330
3
100
AcDbSymbolTableRecord
100
AcDbTextStyleTableRecord
  2
dcStyle1
 70
     0
 40
0.0
 41
0.9239999999999999
 50
0.0
 71
     0
 42
0.2
  3
ＭＳ 明朝
  4

1001
ACAD
1000
ＭＳ 明朝
1071
    32802
  0
ENDTAB
  0
TABLE
  2
VIEW
  5
6
330
0
100
AcDbSymbolTable
 70
     0
  0
ENDTAB
  0
TABLE
  2
UCS
  5
7
330
0
100
AcDbSymbolTable
 70
     0
  0
ENDTAB
  0
TABLE
  2
APPID
  5
9
330
0
100
AcDbSymbolTable
 70
     3
  0
APPID
  5
12
330
9
100
AcDbSymbolTableRecord
100
AcDbRegAppTableRecord
  2
ACAD
 70
     0
  0
APPID
  5
6A
330
9
100
AcDbSymbolTableRecord
100
AcDbRegAppTableRecord
  2
DaFusionOut
 70
     0
  0
APPID
  5
426
330
9
100
AcDbSymbolTableRecord
100
AcDbRegAppTableRecord
  2
ACAD_DSTYLE_DIMARC_LENGTH_SYMBOL
 70
     0
  0
ENDTAB
  0
TABLE
  2
DIMSTYLE
  5
A
330
0
100
AcDbSymbolTable
 70
     2
100
AcDbDimStyleTable
  0
DIMSTYLE
105
27
330
A
100
AcDbSymbolTableRecord
100
AcDbDimStyleTableRecord
  2
Standard
 70
     0
178
     0
340
11
  0
DIMSTYLE
105
375
102
{ACAD_REACTORS
330
374
330
376
330
377
330
37A
102
}
330
A
100
AcDbSymbolTableRecord
100
AcDbDimStyleTableRecord
  2
dc_Rotated
 70
     0
 41
3.000001907348633
 42
1.0
 44
0.0
 73
     0
 74
     0
 75
     1
 77
     3
 78
     8
 79
     2
140
3.499999999999999
147
1.0
172
     1
173
     1
176
     7
177
     7
271
     2
178
     7
271
     2
274
     4
283
     0
284
     8
288
     1
340
160
343
157
344
157
1001
ACAD_DSTYLE_DIMARC_LENGTH_SYMBOL
1070
   379
1070
     1
  0
ENDTAB
  0
TABLE
  2
BLOCK_RECORD
  5
1
330
0
100
AcDbSymbolTable
 70
    22
  0
BLOCK_RECORD
  5
1F
330
1
100
AcDbSymbolTableRecord
100
AcDbBlockTableRecord
  2
*Model_Space
340
22
  0
BLOCK_RECORD
  5
1B
330
1
100
AcDbSymbolTableRecord
100
AcDbBlockTableRecord
  2
*Paper_Space
340
1E
  0
BLOCK_RECORD
  5
23
330
1
100
AcDbSymbolTableRecord
100
AcDbBlockTableRecord
  2
*Paper_Space0
340
26
  0
BLOCK_RECORD
  5
AF
330
1
100
AcDbSymbolTableRecord
100
AcDbBlockTableRecord
  2
DC_GROUP_658HSK-L I型ストライク_1
340
0
102
{BLKREFS
331
372
102
}
  0
BLOCK_RECORD
  5
B2
330
1
100
AcDbSymbolTableRecord
100
AcDbBlockTableRecord
  2
DC_GROUP_658HSK-L I型ストライク_2
340
0
102
{BLKREFS
331
373
102
}
  0
BLOCK_RECORD
  5
B5
330
1
100
AcDbSymbolTableRecord
100
AcDbBlockTableRecord
  2
DC_GROUP_658HSK-L I型ストライク_3
340
0
102
{BLKREFS
331
E9
102
}
  0
BLOCK_RECORD
  5
B8
330
1
100
AcDbSymbolTableRecord
100
AcDbBlockTableRecord
  2
DC_GROUP_658HSK-L I型ストライク_4
340
0
102
{BLKREFS
331
F4
102
}
  0
BLOCK_RECORD
  5
BB
330
1
100
AcDbSymbolTableRecord
100
AcDbBlockTableRecord
  2
DC_FILL_GROUP_5
340
0
102
{BLKREFS
331
F5
102
}
  0
BLOCK_RECORD
  5
BE
330
1
100
AcDbSymbolTableRecord
100
AcDbBlockTableRecord
  2
DC_FILL_GROUP_6
340
0
102
{BLKREFS
331
F6
102
}
  0
BLOCK_RECORD
  5
C1
330
1
100
AcDbSymbolTableRecord
100
AcDbBlockTableRecord
  2
DC_FILL_GROUP_7
340
0
102
{BLKREFS
331
F7
102
}
  0
BLOCK_RECORD
  5
C4
330
1
100
AcDbSymbolTableRecord
100
AcDbBlockTableRecord
  2
DC_FILL_GROUP_8
340
0
102
{BLKREFS
331
F8
102
}
  0
BLOCK_RECORD
  5
C7
330
1
100
AcDbSymbolTableRecord
100
AcDbBlockTableRecord
  2
DC_GROUP_658HSK-L I型ストライク_9
340
0
102
{BLKREFS
331
EC
102
}
  0
BLOCK_RECORD
  5
CA
330
1
100
AcDbSymbolTableRecord
100
AcDbBlockTableRecord
  2
DC_GROUP_658HSK-L I型ストライク_10
340
0
102
{BLKREFS
331
14E
102
}
  0
BLOCK_RECORD
  5
CD
330
1
100
AcDbSymbolTableRecord
100
AcDbBlockTableRecord
  2
DC_FILL_GROUP_11
340
0
102
{BLKREFS
331
14F
102
}
  0
BLOCK_RECORD
  5
D0
330
1
100
AcDbSymbolTableRecord
100
AcDbBlockTableRecord
  2
*D12
340
0
  0
BLOCK_RECORD
  5
D3
330
1
100
AcDbSymbolTableRecord
100
AcDbBlockTableRecord
  2
*D13
340
0
  0
BLOCK_RECORD
  5
D6
330
1
100
AcDbSymbolTableRecord
100
AcDbBlockTableRecord
  2
*D14
340
0
  0
BLOCK_RECORD
  5
D9
330
1
100
AcDbSymbolTableRecord
100
AcDbBlockTableRecord
  2
DC_GROUP_658HSK-L I型ストライク_12
340
0
102
{BLKREFS
331
378
102
}
  0
BLOCK_RECORD
  5
DC
330
1
100
AcDbSymbolTableRecord
100
AcDbBlockTableRecord
  2
DC_GROUP_658HSK-L I型ストライク_13
340
0
102
{BLKREFS
331
379
102
}
  0
BLOCK_RECORD
  5
DF
330
1
100
AcDbSymbolTableRecord
100
AcDbBlockTableRecord
  2
*D17
340
0
  0
BLOCK_RECORD
  5
E2
330
1
100
AcDbSymbolTableRecord
100
AcDbBlockTableRecord
  2
DC_GROUP_658HSK-L I型ストライク_14
340
0
102
{BLKREFS
331
37B
102
}
  0
BLOCK_RECORD
  5
E5
330
1
100
AcDbSymbolTableRecord
100
AcDbBlockTableRecord
  2
DC_GROUP_658HSK-L I型ストライク_15
340
0
102
{BLKREFS
331
37C
102
}
  0
BLOCK_RECORD
  5
157
330
1
100
AcDbSymbolTableRecord
100
AcDbBlockTableRecord
  2
_OPEN30
340
0
102
{BLKREFS
331
15D
331
15E
331
163
331
164
331
168
331
169
331
184
331
185
331
2DB
331
2DC
331
2DE
331
2DF
331
2E1
331
2E2
331
2E4
331
2E5
331
2E7
331
2E8
331
2EA
331
2EB
331
2ED
331
2EE
331
2F0
331
2F1
331
2F3
331
2F4
331
2F6
331
2F7
331
2F9
331
2FA
331
2FC
331
2FD
331
2FF
331
300
331
302
331
303
331
305
331
306
331
308
331
309
331
30B
331
30C
331
328
331
32A
331
32C
331
32E
331
330
331
332
331
334
331
336
331
338
331
33A
331
33C
102
}
  0
BLOCK_RECORD
  5
33E
330
1
100
AcDbSymbolTableRecord
100
AcDbBlockTableRecord
  2
_DOT
340
0
102
{BLKREFS
331
346
102
}
  0
ENDTAB
  0
ENDSEC
  0
SECTION
  2
BLOCKS
  0
BLOCK
  5
20
330
1F
100
AcDbEntity
  8
0
100
AcDbBlockBegin
  2
*Model_Space
 70
     0
 10
0.0
 20
0.0
 30
0.0
  3
*Model_Space
  1
*Model_Space
  0
ENDBLK
  5
21
330
1F
100
AcDbEntity
  8
0
100
AcDbBlockEnd
  0
BLOCK
  5
1C
330
1B
100
AcDbEntity
 67
     1
  8
0
100
AcDbBlockBegin
  2
*Paper_Space
 70
     0
 10
0.0
 20
0.0
 30
0.0
  3
*Paper_Space
  1
*Paper_Space
  0
ENDBLK
  5
1D
330
1B
100
AcDbEntity
 67
     1
  8
0
100
AcDbBlockEnd
  0
BLOCK
  5
24
330
23
100
AcDbEntity
  8
0
100
AcDbBlockBegin
  2
*Paper_Space0
 70
     0
 10
0.0
 20
0.0
 30
0.0
  3
*Paper_Space0
  1
*Paper_Space0
  0
ENDBLK
  5
25
330
23
100
AcDbEntity
  8
0
100
AcDbBlockEnd
  0
BLOCK
  5
B0
330
AF
100
AcDbEntity
  8
0
100
AcDbBlockBegin
  2
DC_GROUP_658HSK-L I型ストライク_1
 70
     0
 10
0.0
 20
0.0
 30
0.0
  3
DC_GROUP_658HSK-L I型ストライク_1
  1
DC_GROUP_658HSK-L I型ストライク_1
  0
LINE
  5
E8
330
AF
100
AcDbEntity
  8
ZUWAKU
  6
Continuous
 62
     6
370
    25
100
AcDbLine
 10
-188.4
 20
131.4977303481027
 30
0.0
 11
-14.1929777645665
 21
131.4977303481027
 31
0.0
  0
ENDBLK
  5
B1
330
AF
100
AcDbEntity
  8
0
100
AcDbBlockEnd
  0
BLOCK
  5
B3
330
B2
100
AcDbEntity
  8
0
100
AcDbBlockBegin
  2
DC_GROUP_658HSK-L I型ストライク_2
 70
     0
 10
0.0
 20
0.0
 30
0.0
  3
DC_GROUP_658HSK-L I型ストライク_2
  1
DC_GROUP_658HSK-L I型ストライク_2
  0
INSERT
  5
E9
330
B2
100
AcDbEntity
  8
ZUWAKU
  6
Continuous
100
AcDbBlockReference
  2
DC_GROUP_658HSK-L I型ストライク_3
 10
0.0
 20
0.0
 30
0.0
  0
LINE
  5
EA
330
B2
100
AcDbEntity
  8
ZUWAKU
  6
Continuous
 62
     6
370
    25
100
AcDbLine
 10
5.699842558461039
 20
131.0977303481027
 30
0.0
 11
188.0
 21
131.0977303481027
 31
0.0
  0
LINE
  5
EB
330
B2
100
AcDbEntity
  8
ZUWAKU
  6
Continuous
 62
     6
370
    25
100
AcDbLine
 10
-188.0000000000001
 20
-137.9022696518972
 30
0.0
 11
-188.0
 21
131.0977303481027
 31
0.0
  0
INSERT
  5
EC
330
B2
100
AcDbEntity
  8
0
  6
Continuous
100
AcDbBlockReference
  2
DC_GROUP_658HSK-L I型ストライク_9
 10
0.0
 20
0.0
 30
0.0
  0
ENDBLK
  5
B4
330
B2
100
AcDbEntity
  8
0
100
AcDbBlockEnd
  0
BLOCK
  5
B6
330
B5
100
AcDbEntity
  8
0
100
AcDbBlockBegin
  2
DC_GROUP_658HSK-L I型ストライク_3
 70
     0
 10
0.0
 20
0.0
 30
0.0
  3
DC_GROUP_658HSK-L I型ストライク_3
  1
DC_GROUP_658HSK-L I型ストライク_3
  0
LINE
  5
ED
330
B5
100
AcDbEntity
  8
ZUWAKU
  6
Continuous
 62
     6
370
    18
100
AcDbLine
 10
-15.18729048293021
 20
127.7869047645574
 30
0.0
 11
4.812709517069791
 21
127.7869047645574
 31
0.0
  0
LINE
  5
EE
330
B5
100
AcDbEntity
  8
ZUWAKU
  6
Continuous
 62
     6
370
    18
100
AcDbLine
 10
-15.18729048293021
 20
127.7869047645574
 30
0.0
 11
4.812709517069791
 21
127.7869047645574
 31
0.0
  0
LINE
  5
EF
330
B5
100
AcDbEntity
  8
ZUWAKU
  6
Continuous
 62
     6
370
    18
100
AcDbLine
 10
-15.18729048293021
 20
127.7869047645574
 30
0.0
 11
-13.25805629742614
 21
134.9869047645574
 31
0.0
  0
LINE
  5
F0
330
B5
100
AcDbEntity
  8
ZUWAKU
  6
Continuous
 62
     6
370
    18
100
AcDbLine
 10
4.812709517069791
 20
127.7869047645574
 30
0.0
 11
6.741943702573863
 21
134.9869047645574
 31
0.0
  0
ARC
  5
F1
330
B5
100
AcDbEntity
  8
ZUWAKU
  6
Continuous
 62
     6
370
    18
100
AcDbCircle
 10
-3.258056297426137
 20
132.5638278414805
 30
0.0
 40
5.023076923076923
100
AcDbArc
 50
28.84154625502196
 51
151.1584537449781
  0
LINE
  5
F2
330
B5
100
AcDbEntity
  8
ZUWAKU
  6
Continuous
 62
     6
370
    18
100
AcDbLine
 10
1.141943702573869
 20
134.9869047645574
 30
0.0
 11
6.741943702573863
 21
134.9869047645574
 31
0.0
  0
LINE
  5
F3
330
B5
100
AcDbEntity
  8
ZUWAKU
  6
Continuous
 62
     6
370
    18
100
AcDbLine
 10
-13.25805629742614
 20
134.9869047645574
 30
0.0
 11
-7.658056297426128
 21
134.9869047645574
 31
0.0
  0
INSERT
  5
F4
330
B5
100
AcDbEntity
  8
ZUWAKU
  6
Continuous
100
AcDbBlockReference
  2
DC_GROUP_658HSK-L I型ストライク_4
 10
0.0
 20
0.0
 30
0.0
  0
INSERT
  5
F5
330
B5
100
AcDbEntity
  8
ZUWAKU
  6
Continuous
100
AcDbBlockReference
  2
DC_FILL_GROUP_5
 10
0.0
 20
0.0
 30
0.0
  0
INSERT
  5
F6
330
B5
100
AcDbEntity
  8
ZUWAKU
  6
Continuous
100
AcDbBlockReference
  2
DC_FILL_GROUP_6
 10
0.0
 20
0.0
 30
0.0
  0
INSERT
  5
F7
330
B5
100
AcDbEntity
  8
ZUWAKU
  6
Continuous
100
AcDbBlockReference
  2
DC_FILL_GROUP_7
 10
0.0
 20
0.0
 30
0.0
  0
INSERT
  5
F8
330
B5
100
AcDbEntity
  8
ZUWAKU
  6
Continuous
100
AcDbBlockReference
  2
DC_FILL_GROUP_8
 10
0.0
 20
0.0
 30
0.0
  0
HATCH
  5
F9
330
B5
100
AcDbEntity
  8
ZUWAKU
 62
     6
100
AcDbHatch
 10
0.0
 20
0.0
 30
0.0
210
0.0
220
0.0
230
1.0
  2
SOLID
 70
     1
 71
     0
 91
        2
 92
        0
 93
        7
 72
     1
 10
-10.61644406058091
 20
133.081680337099
 11
-9.148769632821281
 21
133.081680337099
 72
     2
 10
-9.214615370495471
 20
132.6706558095067
 40
0.4162653281889734
 50
279.101396467581
 51
341.8598114989512
 73
     0
 72
     2
 10
-9.458184903820401
 20
132.6210539412675
 40
0.6637926737302501
 50
344.3376004792017
 51
377.2813944566045
 73
     0
 72
     2
 10
-9.796034832635987
 20
132.7006073304519
 40
1.010318374566457
 50
15.89745315179078
 51
49.94045683781776
 73
     0
 72
     2
 10
-9.66924191206301
 20
132.5212802327218
 40
0.7916770020377544
 50
48.61101998666827
 51
81.33918089668116
 73
     0
 72
     1
 10
-9.550027375135045
 20
131.7386306497407
 11
-10.97631313970343
 21
131.7386306497407
 72
     1
 10
-10.97631313970343
 20
131.7386306497407
 11
-10.61644406058091
 21
133.081680337099
 97
        0
 92
        0
 93
        7
 72
     1
 10
-11.10883290111839
 20
131.2440601671332
 11
-9.790267383885867
 21
131.2440601671332
 72
     2
 10
-9.796303065688356
 20
130.6394317120964
 40
0.6046585797745943
 50
270.5719340607648
 51
313.3452220316362
 73
     0
 72
     2
 10
-9.81044415134673
 20
130.6974914522775
 40
0.574334497943418
 50
318.3531395132113
 51
368.8750120922202
 73
     0
 72
     2
 10
-10.27470825576618
 20
130.7236010828962
 40
1.038080399406426
 50
6.34468265029667
 51
45.39248346201526
 73
     0
 72
     2
 10
-10.22628606091733
 20
130.6563359917389
 40
0.9562729630134257
 50
44.62774037308801
 51
85.94856699901332
 73
     0
 72
     1
 10
-10.15872352661223
 20
129.7024527264759
 11
-11.52190536988831
 21
129.7024527264759
 72
     1
 10
-11.52190536988831
 20
129.7024527264759
 11
-11.10883290111839
 21
131.2440601671332
 97
        0
 75
     0
 76
     1
 98
        0
  0
HATCH
  5
FA
330
B5
100
AcDbEntity
  8
ZUWAKU
 62
     6
100
AcDbHatch
 10
0.0
 20
0.0
 30
0.0
210
0.0
220
0.0
230
1.0
  2
SOLID
 70
     1
 71
     0
 91
        1
 92
        0
 93
       12
 72
     1
 10
-6.793335074500064
 20
133.5254744099523
 11
-4.06388643049422
 21
133.5254744099523
 72
     1
 10
-4.06388643049422
 20
133.5254744099523
 11
-4.183074453479151
 21
133.0806586525188
 72
     1
 10
-4.183074453479151
 20
133.0806586525188
 11
-6.31491778350299
 21
133.0806586525188
 72
     1
 10
-6.31491778350299
 20
133.0806586525188
 11
-6.67831224361777
 21
131.7244520641814
 72
     1
 10
-6.67831224361777
 20
131.7244520641814
 11
-4.687965074339083
 21
131.7244520641814
 72
     1
 10
-4.687965074339083
 20
131.7244520641814
 11
-4.822471841115888
 21
131.2224659766085
 72
     1
 10
-4.822471841115888
 20
131.2224659766085
 11
-6.812819010394575
 21
131.2224659766085
 72
     1
 10
-6.812819010394575
 20
131.2224659766085
 11
-7.224346239903107
 21
129.6866254473846
 72
     1
 10
-7.224346239903107
 20
129.6866254473846
 11
-5.092502909879268
 21
129.6866254473846
 72
     1
 10
-5.092502909879268
 20
129.6866254473846
 11
-5.206494156524529
 21
129.2612043232864
 72
     1
 10
-5.206494156524529
 20
129.2612043232864
 11
-7.935371758038853
 21
129.2633354828951
 72
     1
 10
-7.935371758038853
 20
129.2633354828951
 11
-6.793335074500064
 21
133.5254744099523
 97
        0
 75
     0
 76
     1
 98
        0
  0
HATCH
  5
FB
330
B5
100
AcDbEntity
  8
ZUWAKU
 62
     6
100
AcDbHatch
 10
0.0
 20
0.0
 30
0.0
210
0.0
220
0.0
230
1.0
  2
SOLID
 70
     1
 71
     0
 91
        1
 92
        0
 93
       30
 72
     1
 10
-3.78690972180226
 20
130.5224816688588
 11
-3.224583528464573
 21
130.5224816688588
 72
     2
 10
-0.7834995687350994
 20
129.9471183586793
 40
2.50797405033412
 50
166.7374506696342
 51
174.0346960170799
 73
     1
 72
     2
 10
-2.859513642208555
 20
130.1334558390303
 40
0.4249267598038105
 50
169.9289351766546
 51
229.7688796832028
 73
     1
 72
     2
 10
-2.666761737496481
 20
130.3875292655661
 40
0.7435841409637962
 50
231.0745478687068
 51
262.6716666561709
 73
     1
 72
     2
 10
-2.422436317866786
 20
131.4537938908353
 40
1.835386079784519
 50
259.3507178335936
 51
286.2294064476557
 73
     1
 72
     2
 10
-2.153509175754112
 20
130.5924258088115
 40
0.9333459318929238
 50
285.1567838305783
 51
336.8654773103671
 73
     1
 72
     2
 10
-1.728523901164363
 20
130.3758570214736
 40
0.4585784011879434
 50
340.8894722365171
 51
392.6647144674489
 73
     1
 72
     2
 10
-1.862092629016691
 20
130.2253186631512
 40
0.654555745366824
 50
37.4531125804551
 51
51.10339143266309
 73
     1
 72
     2
 10
-2.632602625983446
 20
129.2468346376588
 40
1.89996405303543
 50
51.54771738514115
 51
61.04207824187351
 73
     1
 72
     1
 10
-1.712702415929059
 20
130.909256667821
 11
-2.857637180679363
 21
131.5608465538943
 72
     2
 10
-2.606641010930637
 20
132.1068388480489
 40
0.6009215111016437
 50
114.6885460662001
 51
173.6067558985703
 73
     0
 72
     2
 10
-1.809879857684515
 20
132.094259640641
 40
1.395004113623998
 50
177.7678039195354
 51
219.749472941094
 73
     0
 72
     2
 10
-1.712882617490692
 20
132.048339570572
 40
1.499181071149208
 50
218.7283245909845
 51
258.8091158160378
 73
     0
 72
     2
 10
-1.476092526492434
 20
130.9420584126249
 40
2.630442027257921
 50
258.4261314493467
 51
281.661165410633
 73
     0
 72
     2
 10
-1.07571535671465
 20
132.6637227764344
 40
0.8645138922101454
 50
278.735536649605
 51
379.106672884661
 73
     0
 72
     1
 10
-0.2588268460625014
 20
132.3807432171216
 11
-0.828889824710989
 21
132.3807432171216
 72
     2
 10
-1.369157678896155
 20
132.5661083324822
 40
0.5711826155079285
 50
341.0629799776079
 51
387.6071696008514
 73
     1
 72
     2
 10
-1.31851948913621
 20
132.5433184379326
 40
0.5386432608505282
 50
32.25654187658522
 51
80.51431194909222
 73
     1
 72
     2
 10
-1.557756208703897
 20
131.3632260160056
 40
1.742520441859646
 50
79.15011896131766
 51
108.0664376272099
 73
     1
 72
     2
 10
-1.833441979590594
 20
132.2918451530955
 40
0.7746216927719662
 50
109.9817183681289
 51
173.1724334146028
 73
     1
 72
     2
 10
-2.283262736295183
 20
132.32551277749
 40
0.3246080018075697
 50
169.6318053873936
 51
229.3606448632574
 73
     1
 72
     1
 10
-2.494678496184883
 20
132.0791923940303
 11
-1.108454353672086
 21
131.2797391624018
 72
     2
 10
-1.533132723280254
 20
130.5371454429522
 40
0.8554514304032861
 50
299.7646008998901
 51
324.2724832207935
 73
     0
 72
     2
 10
-1.405876864626978
 20
130.5560446692498
 40
0.7434509898745061
 50
319.7233371318061
 51
372.8486294546467
 73
     0
 72
     2
 10
-1.868903466724453
 20
130.5901924075046
 40
1.204494288996884
 50
9.532534887747325
 51
49.40615071678932
 73
     0
 72
     2
 10
-1.938069692842912
 20
130.517858724981
 40
1.198718270853014
 50
44.64060832750974
 51
63.21947441975042
 73
     0
 72
     2
 10
-2.345970515417255
 20
131.3504893434705
 40
2.125858195144981
 50
63.51629194665468
 51
89.83153432827561
 73
     0
 72
     2
 10
-2.537347971461981
 20
132.5227850078217
 40
3.304060398726554
 50
86.57088082813499
 51
99.59550348876685
 73
     0
 72
     2
 10
-2.963001710900193
 20
130.2116731678471
 40
0.9549520550140204
 50
97.52773837286186
 51
155.7356128656445
 73
     0
 72
     2
 10
-2.558254893119924
 20
130.087750101634
 40
1.30329744248432
 50
168.1104689066824
 51
199.4851673102285
 73
     0
 97
        0
 75
     0
 76
     1
 98
        0
  0
HATCH
  5
FC
330
B5
100
AcDbEntity
  8
ZUWAKU
 62
     6
100
AcDbHatch
 10
0.0
 20
0.0
 30
0.0
210
0.0
220
0.0
230
1.0
  2
SOLID
 70
     1
 71
     0
 91
        1
 92
        0
 93
        8
 72
     1
 10
0.8840602143685317
 20
133.5257500175911
 11
4.28182652491876
 21
133.5257500175911
 72
     1
 10
4.28182652491876
 20
133.5257500175911
 11
4.162114952616179
 21
133.0789803475039
 72
     1
 10
4.162114952616179
 20
133.0789803475039
 11
2.752636490468075
 21
133.0789803475039
 72
     1
 10
2.752636490468075
 20
133.0789803475039
 11
1.728354297797434
 21
129.256307163169
 72
     1
 10
1.728354297797434
 20
129.256307163169
 11
1.153476913781705
 21
129.256307163169
 72
     1
 10
1.153476913781705
 20
129.256307163169
 11
2.177759106452345
 21
133.0789803475039
 72
     1
 10
2.177759106452345
 20
133.0789803475039
 11
0.7643486420659484
 21
133.0789803475039
 72
     1
 10
0.7643486420659485
 20
133.0789803475039
 11
0.8840602143685317
 21
133.5257500175911
 97
        0
 75
     0
 76
     1
 98
        0
  0
ENDBLK
  5
B7
330
B5
100
AcDbEntity
  8
0
100
AcDbBlockEnd
  0
BLOCK
  5
B9
330
B8
100
AcDbEntity
  8
0
100
AcDbBlockBegin
  2
DC_GROUP_658HSK-L I型ストライク_4
 70
     0
 10
0.0
 20
0.0
 30
0.0
  3
DC_GROUP_658HSK-L I型ストライク_4
  1
DC_GROUP_658HSK-L I型ストライク_4
  0
LINE
  5
FD
330
B8
100
AcDbEntity
  8
ZUWAKU
  6
Continuous
 62
     6
370
    18
100
AcDbLine
 10
-12.95112550223455
 20
134.5869047645574
 30
0.0
 11
-7.414978235591434
 21
134.5869047645574
 31
0.0
  0
ARC
  5
FE
330
B8
100
AcDbEntity
  8
ZUWAKU
  6
Continuous
 62
     6
370
    18
100
AcDbCircle
 10
-3.258056297426137
 20
132.5638278414805
 30
0.0
 40
4.623076923076923
100
AcDbArc
 50
25.95110613512598
 51
154.048893864874
  0
LINE
  5
FF
330
B8
100
AcDbEntity
  8
ZUWAKU
  6
Continuous
 62
     6
370
    18
100
AcDbLine
 10
0.8988656407391744
 20
134.5869047645574
 30
0.0
 11
6.220653553437387
 21
134.5869047645574
 31
0.0
  0
LINE
  5
100
330
B8
100
AcDbEntity
  8
ZUWAKU
  6
Continuous
 62
     6
370
    18
100
AcDbLine
 10
6.220653553437387
 20
134.5869047645574
 30
0.0
 11
4.505778721878201
 21
128.1869047645574
 31
0.0
  0
LINE
  5
101
330
B8
100
AcDbEntity
  8
ZUWAKU
  6
Continuous
 62
     6
370
    18
100
AcDbLine
 10
4.505778721878201
 20
128.1869047645574
 30
0.0
 11
-14.66600033379373
 21
128.1869047645574
 31
0.0
  0
LINE
  5
102
330
B8
100
AcDbEntity
  8
ZUWAKU
  6
Continuous
 62
     6
370
    18
100
AcDbLine
 10
-14.66600033379373
 20
128.1869047645574
 30
0.0
 11
-12.95112550223455
 21
134.5869047645574
 31
0.0
  0
ENDBLK
  5
BA
330
B8
100
AcDbEntity
  8
0
100
AcDbBlockEnd
  0
BLOCK
  5
BC
330
BB
100
AcDbEntity
  8
0
100
AcDbBlockBegin
  2
DC_FILL_GROUP_5
 70
     0
 10
0.0
 20
0.0
 30
0.0
  3
DC_FILL_GROUP_5
  1
DC_FILL_GROUP_5
  0
LINE
  5
103
330
BB
100
AcDbEntity
  8
ZUWAKU
  6
Continuous
 62
     6
370
    18
100
AcDbLine
 10
-11.09005816370822
 20
133.5251988023135
 30
0.0
 11
-12.23122901015888
 21
129.2662912232432
 31
0.0
  0
LINE
  5
104
330
BB
100
AcDbEntity
  8
ZUWAKU
  6
Continuous
 62
     6
370
    18
100
AcDbLine
 10
-10.6164440605809
 20
133.0816803370989
 30
0.0
 11
-9.14876963282127
 21
133.0816803370989
 31
0.0
  0
LINE
  5
105
330
BB
100
AcDbEntity
  8
ZUWAKU
  6
Continuous
 62
     6
370
    18
100
AcDbLine
 10
-10.97631313970342
 20
131.7386306497407
 30
0.0
 11
-9.550027375135045
 21
131.7386306497407
 31
0.0
  0
LINE
  5
106
330
BB
100
AcDbEntity
  8
ZUWAKU
  6
Continuous
 62
     6
370
    18
100
AcDbLine
 10
-11.10883290111838
 20
131.2440601671331
 30
0.0
 11
-9.790267383885862
 21
131.2440601671331
 31
0.0
  0
LINE
  5
107
330
BB
100
AcDbEntity
  8
ZUWAKU
  6
Continuous
 62
     6
370
    18
100
AcDbLine
 10
-11.5219053698883
 20
129.7024527264759
 30
0.0
 11
-10.15872352661222
 21
129.7024527264759
 31
0.0
  0
LINE
  5
108
330
BB
100
AcDbEntity
  8
ZUWAKU
  6
Continuous
 62
     6
370
    18
100
AcDbLine
 10
-12.23122901015888
 20
129.2662912232432
 30
0.0
 11
-10.16519154196168
 21
129.2662912232432
 31
0.0
  0
LINE
  5
109
330
BB
100
AcDbEntity
  8
ZUWAKU
  6
Continuous
 62
     6
370
    18
100
AcDbLine
 10
-11.09005816370822
 20
133.5251988023135
 30
0.0
 11
-9.008532940668204
 21
133.5251988023135
 31
0.0
  0
LINE
  5
10A
330
BB
100
AcDbEntity
  8
ZUWAKU
  6
Continuous
 62
     6
370
    18
100
AcDbLine
 10
-10.6164264363961
 20
133.0817461114521
 30
0.0
 11
-10.97631313970342
 21
131.7386306497407
 31
0.0
  0
LINE
  5
10B
330
BB
100
AcDbEntity
  8
ZUWAKU
  6
Continuous
 62
     6
370
    18
100
AcDbLine
 10
-11.10883290111838
 20
131.2440601671331
 30
0.0
 11
-11.5219053698883
 21
129.7024527264759
 31
0.0
  0
ARC
  5
10C
330
BB
100
AcDbEntity
  8
ZUWAKU
  6
Continuous
 62
     6
370
    25
100
AcDbCircle
 10
-9.002622178133166
 20
132.6785087326828
 30
0.0
 40
0.8467107009627803
100
AcDbArc
 50
36.60229733366693
 51
90.39997663577897
  0
ARC
  5
10D
330
BB
100
AcDbEntity
  8
ZUWAKU
  6
Continuous
 62
     6
370
    25
100
AcDbCircle
 10
-8.925577248175813
 20
132.7881680315858
 30
0.0
 40
0.7207048013734642
100
AcDbArc
 50
359.9092480053928
 51
33.25383823050022
  0
ARC
  5
10E
330
BB
100
AcDbEntity
  8
ZUWAKU
  6
Continuous
 62
     6
370
    25
100
AcDbCircle
 10
-9.536471115343986
 20
132.7808171941425
 30
0.0
 40
1.331618957837778
100
AcDbArc
 50
312.67901524403
 51
0.6894022979390294
  0
ARC
  5
10F
330
BB
100
AcDbEntity
  8
ZUWAKU
  6
Continuous
 62
     6
370
    25
100
AcDbCircle
 10
-9.683317700826038
 20
132.9921228479682
 30
0.0
 40
1.586901292237804
100
AcDbArc
 50
289.646728879067
 51
311.4048962840303
  0
ARC
  5
110
330
BB
100
AcDbEntity
  8
ZUWAKU
  6
Continuous
 62
     6
370
    25
100
AcDbCircle
 10
-9.370919407783049
 20
130.8008571052884
 30
0.0
 40
0.7310027855036054
100
AcDbArc
 50
15.48798517877331
 51
72.39045551596023
  0
ARC
  5
111
330
BB
100
AcDbEntity
  8
ZUWAKU
  6
Continuous
 62
     6
370
    25
100
AcDbCircle
 10
-9.770458699227675
 20
130.7361456582713
 30
0.0
 40
1.134180359811863
100
AcDbArc
 50
333.5932683206109
 51
13.24798338764212
  0
ARC
  5
112
330
BB
100
AcDbEntity
  8
ZUWAKU
  6
Continuous
 62
     6
370
    25
100
AcDbCircle
 10
-10.24940349796647
 20
130.8538501593707
 30
0.0
 40
1.619078012600534
100
AcDbArc
 50
308.3521588912623
 51
337.4032107594748
  0
ARC
  5
113
330
BB
100
AcDbEntity
  8
ZUWAKU
  6
Continuous
 62
     6
370
    25
100
AcDbCircle
 10
-10.15568308085626
 20
130.730297248174
 30
0.0
 40
1.464036902494674
100
AcDbArc
 50
269.6278792425639
 51
308.4761041721405
  0
ARC
  5
114
330
BB
100
AcDbEntity
  8
ZUWAKU
  6
Continuous
 62
     6
370
    25
100
AcDbCircle
 10
-9.214615370495466
 20
132.6706558095067
 30
0.0
 40
0.4162653281889734
100
AcDbArc
 50
18.14018850104889
 51
80.89860353241913
  0
ARC
  5
115
330
BB
100
AcDbEntity
  8
ZUWAKU
  6
Continuous
 62
     6
370
    25
100
AcDbCircle
 10
-9.458184903820396
 20
132.6210539412674
 30
0.0
 40
0.6637926737302501
100
AcDbArc
 50
342.718605543397
 51
15.66239952079831
  0
ARC
  5
116
330
BB
100
AcDbEntity
  8
ZUWAKU
  6
Continuous
 62
     6
370
    25
100
AcDbCircle
 10
-9.796034832635982
 20
132.7006073304519
 30
0.0
 40
1.010318374566457
100
AcDbArc
 50
310.0595431621818
 51
344.1025468482097
  0
ARC
  5
117
330
BB
100
AcDbEntity
  8
ZUWAKU
  6
Continuous
 62
     6
370
    25
100
AcDbCircle
 10
-9.669241912063
 20
132.5212802327218
 30
0.0
 40
0.7916770020377544
100
AcDbArc
 50
278.6608191033192
 51
311.3889800133315
  0
ARC
  5
118
330
BB
100
AcDbEntity
  8
ZUWAKU
  6
Continuous
 62
     6
370
    25
100
AcDbCircle
 10
-9.796303065688349
 20
130.6394317120963
 30
0.0
 40
0.6046585797745943
100
AcDbArc
 50
46.65477796836485
 51
89.4280659392352
  0
ARC
  5
119
330
BB
100
AcDbEntity
  8
ZUWAKU
  6
Continuous
 62
     6
370
    25
100
AcDbCircle
 10
-9.81044415134673
 20
130.6974914522774
 30
0.0
 40
0.574334497943418
100
AcDbArc
 50
351.1249879077801
 51
41.6468604867896
  0
ARC
  5
11A
330
BB
100
AcDbEntity
  8
ZUWAKU
  6
Continuous
 62
     6
370
    25
100
AcDbCircle
 10
-10.27470825576617
 20
130.7236010828962
 30
0.0
 40
1.038080399406426
100
AcDbArc
 50
314.6075165379853
 51
353.655317349704
  0
ARC
  5
11B
330
BB
100
AcDbEntity
  8
ZUWAKU
  6
Continuous
 62
     6
370
    25
100
AcDbCircle
 10
-10.22628606091732
 20
130.6563359917389
 30
0.0
 40
0.9562729630134257
100
AcDbArc
 50
274.0514330009866
 51
315.3722596269116
  0
ENDBLK
  5
BD
330
BB
100
AcDbEntity
  8
0
100
AcDbBlockEnd
  0
BLOCK
  5
BF
330
BE
100
AcDbEntity
  8
0
100
AcDbBlockBegin
  2
DC_FILL_GROUP_6
 70
     0
 10
0.0
 20
0.0
 30
0.0
  3
DC_FILL_GROUP_6
  1
DC_FILL_GROUP_6
  0
LINE
  5
11C
330
BE
100
AcDbEntity
  8
ZUWAKU
  6
Continuous
 62
     6
370
    18
100
AcDbLine
 10
-5.206494156524528
 20
129.2612043232864
 30
0.0
 11
-7.935371758038855
 21
129.2633354828952
 31
0.0
  0
LINE
  5
11D
330
BE
100
AcDbEntity
  8
ZUWAKU
  6
Continuous
 62
     6
370
    18
100
AcDbLine
 10
-6.314917783502992
 20
133.0806586525188
 30
0.0
 11
-4.183074453479151
 21
133.0806586525188
 31
0.0
  0
LINE
  5
11E
330
BE
100
AcDbEntity
  8
ZUWAKU
  6
Continuous
 62
     6
370
    18
100
AcDbLine
 10
-4.68796507433909
 20
131.7244520641814
 30
0.0
 11
-4.822471841115899
 21
131.2224659766085
 31
0.0
  0
LINE
  5
11F
330
BE
100
AcDbEntity
  8
ZUWAKU
  6
Continuous
 62
     6
370
    18
100
AcDbLine
 10
-6.793335074500064
 20
133.5254744099523
 30
0.0
 11
-4.063886430494222
 21
133.5254744099523
 31
0.0
  0
LINE
  5
120
330
BE
100
AcDbEntity
  8
ZUWAKU
  6
Continuous
 62
     6
370
    18
100
AcDbLine
 10
-6.793335074504654
 20
133.5254744099523
 30
0.0
 11
-7.935371758038855
 21
129.2633354828952
 31
0.0
  0
LINE
  5
121
330
BE
100
AcDbEntity
  8
ZUWAKU
  6
Continuous
 62
     6
370
    18
100
AcDbLine
 10
-4.063886430494222
 20
133.5254744099523
 30
0.0
 11
-4.183074453479151
 21
133.0806586525188
 31
0.0
  0
LINE
  5
122
330
BE
100
AcDbEntity
  8
ZUWAKU
  6
Continuous
 62
     6
370
    18
100
AcDbLine
 10
-5.092502909879272
 20
129.6866254473846
 30
0.0
 11
-5.206494156524528
 21
129.2612043232864
 31
0.0
  0
LINE
  5
123
330
BE
100
AcDbEntity
  8
ZUWAKU
  6
Continuous
 62
     6
370
    18
100
AcDbLine
 10
-6.314917783502992
 20
133.0806586525188
 30
0.0
 11
-6.678312243617782
 21
131.7244520641814
 31
0.0
  0
LINE
  5
124
330
BE
100
AcDbEntity
  8
ZUWAKU
  6
Continuous
 62
     6
370
    18
100
AcDbLine
 10
-6.812819010394577
 20
131.2224659766085
 30
0.0
 11
-7.224346239903113
 21
129.6866254473846
 31
0.0
  0
LINE
  5
125
330
BE
100
AcDbEntity
  8
ZUWAKU
  6
Continuous
 62
     6
370
    25
100
AcDbLine
 10
-5.092502909879272
 20
129.6866254473846
 30
0.0
 11
-7.224346239903127
 21
129.6866254473846
 31
0.0
  0
LINE
  5
126
330
BE
100
AcDbEntity
  8
ZUWAKU
  6
Continuous
 62
     6
370
    25
100
AcDbLine
 10
-6.812819010394577
 20
131.2224659766085
 30
0.0
 11
-4.822471841115899
 21
131.2224659766085
 31
0.0
  0
LINE
  5
127
330
BE
100
AcDbEntity
  8
ZUWAKU
  6
Continuous
 62
     6
370
    25
100
AcDbLine
 10
-6.678312243617597
 20
131.7244520641814
 30
0.0
 11
-4.68796507433909
 21
131.7244520641814
 31
0.0
  0
ENDBLK
  5
C0
330
BE
100
AcDbEntity
  8
0
100
AcDbBlockEnd
  0
BLOCK
  5
C2
330
C1
100
AcDbEntity
  8
0
100
AcDbBlockBegin
  2
DC_FILL_GROUP_7
 70
     0
 10
0.0
 20
0.0
 30
0.0
  3
DC_FILL_GROUP_7
  1
DC_FILL_GROUP_7
  0
LINE
  5
128
330
C1
100
AcDbEntity
  8
ZUWAKU
  6
Continuous
 62
     6
370
    25
100
AcDbLine
 10
-3.224583528464578
 20
130.5224816688588
 30
0.0
 11
-3.78690972180226
 21
130.5224816688588
 31
0.0
  0
LINE
  5
129
330
C1
100
AcDbEntity
  8
ZUWAKU
  6
Continuous
 62
     6
370
    25
100
AcDbLine
 10
-0.8288898247109984
 20
132.3807432171216
 30
0.0
 11
-0.2588268460625045
 21
132.3807432171216
 31
0.0
  0
ARC
  5
12A
330
C1
100
AcDbEntity
  8
ZUWAKU
  6
Continuous
 62
     6
370
    25
100
AcDbCircle
 10
-0.7834995687351096
 20
129.9471183586792
 30
0.0
 40
2.50797405033412
100
AcDbArc
 50
166.7374506696339
 51
174.0346960170794
  0
ARC
  5
12B
330
C1
100
AcDbEntity
  8
ZUWAKU
  6
Continuous
 62
     6
370
    25
100
AcDbCircle
 10
-2.859513642208555
 20
130.1334558390303
 30
0.0
 40
0.4249267598038105
100
AcDbArc
 50
169.9289351766524
 51
229.7688796832034
  0
ARC
  5
12C
330
C1
100
AcDbEntity
  8
ZUWAKU
  6
Continuous
 62
     6
370
    25
100
AcDbCircle
 10
-2.666761737496486
 20
130.3875292655661
 30
0.0
 40
0.7435841409637962
100
AcDbArc
 50
231.0745478687071
 51
262.6716666561708
  0
ARC
  5
12D
330
C1
100
AcDbEntity
  8
ZUWAKU
  6
Continuous
 62
     6
370
    25
100
AcDbCircle
 10
-2.422436317866783
 20
131.4537938908353
 30
0.0
 40
1.835386079784519
100
AcDbArc
 50
259.3507178335936
 51
286.2294064476557
  0
ARC
  5
12E
330
C1
100
AcDbEntity
  8
ZUWAKU
  6
Continuous
 62
     6
370
    25
100
AcDbCircle
 10
-2.15350917575411
 20
130.5924258088115
 30
0.0
 40
0.9333459318929238
100
AcDbArc
 50
285.1567838305781
 51
336.8654773103665
  0
ARC
  5
12F
330
C1
100
AcDbEntity
  8
ZUWAKU
  6
Continuous
 62
     6
370
    25
100
AcDbCircle
 10
-1.728523901164365
 20
130.3758570214736
 30
0.0
 40
0.4585784011879434
100
AcDbArc
 50
340.8894722365158
 51
32.66471446744971
  0
ARC
  5
130
330
C1
100
AcDbEntity
  8
ZUWAKU
  6
Continuous
 62
     6
370
    25
100
AcDbCircle
 10
-1.862092629016701
 20
130.2253186631512
 30
0.0
 40
0.654555745366824
100
AcDbArc
 50
37.45311258045549
 51
51.10339143266279
  0
LINE
  5
131
330
C1
100
AcDbEntity
  8
ZUWAKU
  6
Continuous
 62
     6
370
    25
100
AcDbLine
 10
-1.712702415929058
 20
130.909256667821
 30
0.0
 11
-2.857637180679362
 21
131.5608465538943
 31
0.0
  0
ARC
  5
132
330
C1
100
AcDbEntity
  8
ZUWAKU
  6
Continuous
 62
     6
370
    25
100
AcDbCircle
 10
-2.632602625983452
 20
129.2468346376588
 30
0.0
 40
1.89996405303543
100
AcDbArc
 50
51.54771738514115
 51
61.04207824187367
  0
ARC
  5
133
330
C1
100
AcDbEntity
  8
ZUWAKU
  6
Continuous
 62
     6
370
    25
100
AcDbCircle
 10
-2.606641010930645
 20
132.1068388480489
 30
0.0
 40
0.6009215111016437
100
AcDbArc
 50
186.3932441014288
 51
245.3114539337998
  0
ARC
  5
134
330
C1
100
AcDbEntity
  8
ZUWAKU
  6
Continuous
 62
     6
370
    25
100
AcDbCircle
 10
-1.809879857684521
 20
132.094259640641
 30
0.0
 40
1.395004113623998
100
AcDbArc
 50
140.2505270589059
 51
182.232196080464
  0
ARC
  5
135
330
C1
100
AcDbEntity
  8
ZUWAKU
  6
Continuous
 62
     6
370
    25
100
AcDbCircle
 10
-1.712882617490692
 20
132.048339570572
 30
0.0
 40
1.499181071149208
100
AcDbArc
 50
101.1908841839622
 51
141.2716754090158
  0
ARC
  5
136
330
C1
100
AcDbEntity
  8
ZUWAKU
  6
Continuous
 62
     6
370
    25
100
AcDbCircle
 10
-1.476092526492437
 20
130.9420584126249
 30
0.0
 40
2.630442027257921
100
AcDbArc
 50
78.33883458936698
 51
101.5738685506533
  0
ARC
  5
137
330
C1
100
AcDbEntity
  8
ZUWAKU
  6
Continuous
 62
     6
370
    25
100
AcDbCircle
 10
-1.075715356714653
 20
132.6637227764344
 30
0.0
 40
0.8645138922101454
100
AcDbArc
 50
340.8933271153405
 51
81.26446335039515
  0
ARC
  5
138
330
C1
100
AcDbEntity
  8
ZUWAKU
  6
Continuous
 62
     6
370
    25
100
AcDbCircle
 10
-1.369157678896158
 20
132.5661083324822
 30
0.0
 40
0.5711826155079285
100
AcDbArc
 50
341.0629799776098
 51
27.6071696008516
  0
ARC
  5
139
330
C1
100
AcDbEntity
  8
ZUWAKU
  6
Continuous
 62
     6
370
    25
100
AcDbCircle
 10
-1.318519489136207
 20
132.5433184379326
 30
0.0
 40
0.5386432608505282
100
AcDbArc
 50
32.25654187658523
 51
80.51431194909236
  0
ARC
  5
13A
330
C1
100
AcDbEntity
  8
ZUWAKU
  6
Continuous
 62
     6
370
    25
100
AcDbCircle
 10
-1.557756208703907
 20
131.3632260160056
 30
0.0
 40
1.742520441859646
100
AcDbArc
 50
79.15011896131765
 51
108.0664376272098
  0
ARC
  5
13B
330
C1
100
AcDbEntity
  8
ZUWAKU
  6
Continuous
 62
     6
370
    25
100
AcDbCircle
 10
-1.833441979590603
 20
132.2918451530955
 30
0.0
 40
0.7746216927719662
100
AcDbArc
 50
109.9817183681286
 51
173.1724334146036
  0
ARC
  5
13C
330
C1
100
AcDbEntity
  8
ZUWAKU
  6
Continuous
 62
     6
370
    25
100
AcDbCircle
 10
-2.283262736295185
 20
132.32551277749
 30
0.0
 40
0.3246080018075697
100
AcDbArc
 50
169.6318053873956
 51
230.4161863131162
  0
LINE
  5
13D
330
C1
100
AcDbEntity
  8
ZUWAKU
  6
Continuous
 62
     6
370
    25
100
AcDbLine
 10
-2.494678496184875
 20
132.0791923940303
 30
0.0
 11
-1.108454353672087
 21
131.2797391624018
 31
0.0
  0
ARC
  5
13E
330
C1
100
AcDbEntity
  8
ZUWAKU
  6
Continuous
 62
     6
370
    25
100
AcDbCircle
 10
-1.405876864626975
 20
130.5560446692498
 30
0.0
 40
0.7434509898745061
100
AcDbArc
 50
347.1513705453531
 51
40.27666286819425
  0
ARC
  5
13F
330
C1
100
AcDbEntity
  8
ZUWAKU
  6
Continuous
 62
     6
370
    25
100
AcDbCircle
 10
-1.868903466724461
 20
130.5901924075046
 30
0.0
 40
1.204494288996884
100
AcDbArc
 50
310.5938492832106
 51
350.4674651122522
  0
ARC
  5
140
330
C1
100
AcDbEntity
  8
ZUWAKU
  6
Continuous
 62
     6
370
    25
100
AcDbCircle
 10
-2.558254893119923
 20
130.087750101634
 30
0.0
 40
1.30329744248432
100
AcDbArc
 50
160.5148326897714
 51
191.8895310933177
  0
ARC
  5
141
330
C1
100
AcDbEntity
  8
ZUWAKU
  6
Continuous
 62
     6
370
    25
100
AcDbCircle
 10
-2.963001710900201
 20
130.2116731678471
 30
0.0
 40
0.9549520550140204
100
AcDbArc
 50
204.2643871343564
 51
262.4722616271382
  0
ARC
  5
142
330
C1
100
AcDbEntity
  8
ZUWAKU
  6
Continuous
 62
     6
370
    25
100
AcDbCircle
 10
-2.537347971461983
 20
132.5227850078216
 30
0.0
 40
3.304060398726554
100
AcDbArc
 50
260.4044965112331
 51
273.429119171865
  0
ARC
  5
143
330
C1
100
AcDbEntity
  8
ZUWAKU
  6
Continuous
 62
     6
370
    25
100
AcDbCircle
 10
-2.34597051541725
 20
131.3504893434705
 30
0.0
 40
2.125858195144981
100
AcDbArc
 50
270.1684656717244
 51
296.4837080533451
  0
ARC
  5
144
330
C1
100
AcDbEntity
  8
ZUWAKU
  6
Continuous
 62
     6
370
    25
100
AcDbCircle
 10
-1.938069692842916
 20
130.517858724981
 30
0.0
 40
1.198718270853014
100
AcDbArc
 50
296.780525580249
 51
315.35939167249
  0
ARC
  5
145
330
C1
100
AcDbEntity
  8
ZUWAKU
  6
Continuous
 62
     6
370
    25
100
AcDbCircle
 10
-1.533132723280261
 20
130.5371454429522
 30
0.0
 40
0.8554514304032861
100
AcDbArc
 50
35.72751677920665
 51
60.23539910010999
  0
ENDBLK
  5
C3
330
C1
100
AcDbEntity
  8
0
100
AcDbBlockEnd
  0
BLOCK
  5
C5
330
C4
100
AcDbEntity
  8
0
100
AcDbBlockBegin
  2
DC_FILL_GROUP_8
 70
     0
 10
0.0
 20
0.0
 30
0.0
  3
DC_FILL_GROUP_8
  1
DC_FILL_GROUP_8
  0
LINE
  5
146
330
C4
100
AcDbEntity
  8
ZUWAKU
  6
Continuous
 62
     6
370
    18
100
AcDbLine
 10
0.8840602143685317
 20
133.5257500175911
 30
0.0
 11
4.281826524918756
 21
133.5257500175911
 31
0.0
  0
LINE
  5
147
330
C4
100
AcDbEntity
  8
ZUWAKU
  6
Continuous
 62
     6
370
    18
100
AcDbLine
 10
1.153476913781702
 20
129.256307163169
 30
0.0
 11
1.728354297797438
 21
129.256307163169
 31
0.0
  0
LINE
  5
148
330
C4
100
AcDbEntity
  8
ZUWAKU
  6
Continuous
 62
     6
370
    18
100
AcDbLine
 10
0.8840602143685317
 20
133.5257500175911
 30
0.0
 11
0.7643486420659542
 21
133.0789803475039
 31
0.0
  0
LINE
  5
149
330
C4
100
AcDbEntity
  8
ZUWAKU
  6
Continuous
 62
     6
370
    18
100
AcDbLine
 10
4.281826524918756
 20
133.5257500175911
 30
0.0
 11
4.162114952616179
 21
133.0789803475039
 31
0.0
  0
LINE
  5
14A
330
C4
100
AcDbEntity
  8
ZUWAKU
  6
Continuous
 62
     6
370
    18
100
AcDbLine
 10
2.752636490468078
 20
133.0789803475039
 30
0.0
 11
1.728354297797438
 21
129.256307163169
 31
0.0
  0
LINE
  5
14B
330
C4
100
AcDbEntity
  8
ZUWAKU
  6
Continuous
 62
     6
370
    18
100
AcDbLine
 10
1.153476913781702
 20
129.256307163169
 30
0.0
 11
2.177759106452342
 21
133.0789803475039
 31
0.0
  0
LINE
  5
14C
330
C4
100
AcDbEntity
  8
ZUWAKU
  6
Continuous
 62
     6
370
    18
100
AcDbLine
 10
0.7643486420659542
 20
133.0789803475039
 30
0.0
 11
2.177759106452342
 21
133.0789803475039
 31
0.0
  0
LINE
  5
14D
330
C4
100
AcDbEntity
  8
ZUWAKU
  6
Continuous
 62
     6
370
    18
100
AcDbLine
 10
2.752636490468078
 20
133.0789803475039
 30
0.0
 11
4.162114952616179
 21
133.0789803475039
 31
0.0
  0
ENDBLK
  5
C6
330
C4
100
AcDbEntity
  8
0
100
AcDbBlockEnd
  0
BLOCK
  5
C8
330
C7
100
AcDbEntity
  8
0
100
AcDbBlockBegin
  2
DC_GROUP_658HSK-L I型ストライク_9
 70
     0
 10
0.0
 20
0.0
 30
0.0
  3
DC_GROUP_658HSK-L I型ストライク_9
  1
DC_GROUP_658HSK-L I型ストライク_9
  0
INSERT
  5
14E
330
C7
100
AcDbEntity
  8
0
  6
Continuous
100
AcDbBlockReference
  2
DC_GROUP_658HSK-L I型ストライク_10
 10
0.0
 20
0.0
 30
0.0
  0
ENDBLK
  5
C9
330
C7
100
AcDbEntity
  8
0
100
AcDbBlockEnd
  0
BLOCK
  5
CB
330
CA
100
AcDbEntity
  8
0
100
AcDbBlockBegin
  2
DC_GROUP_658HSK-L I型ストライク_10
 70
     0
 10
0.0
 20
0.0
 30
0.0
  3
DC_GROUP_658HSK-L I型ストライク_10
  1
DC_GROUP_658HSK-L I型ストライク_10
  0
INSERT
  5
14F
330
CA
100
AcDbEntity
  8
ZUWAKU
  6
Continuous
100
AcDbBlockReference
  2
DC_FILL_GROUP_11
 10
0.0
 20
0.0
 30
0.0
  0
HATCH
  5
150
330
CA
100
AcDbEntity
  8
ZUWAKU
 62
     6
100
AcDbHatch
 10
0.0
 20
0.0
 30
0.0
210
0.0
220
0.0
230
1.0
  2
SOLID
 70
     1
 71
     0
 91
        1
 92
        0
 93
       12
 72
     1
 10
5.807022235433489
 20
131.4977303481027
 11
188.4
 21
131.4977303481027
 72
     1
 10
188.4
 20
131.4977303481027
 11
188.3999999999999
 21
-138.3022696518974
 72
     1
 10
188.3999999999999
 20
-138.3022696518974
 11
-188.4000000000001
 21
-138.3022696518972
 72
     1
 10
-188.4000000000001
 20
-138.3022696518972
 11
-188.4
 21
131.4977303481027
 72
     1
 10
-188.4
 20
131.4977303481027
 11
-14.19297776456651
 21
131.4977303481027
 72
     1
 10
-14.1929777645665
 20
131.4977303481027
 11
-14.30015744153895
 21
131.0977303481027
 72
     1
 10
-14.30015744153895
 20
131.0977303481027
 11
-188.0
 21
131.0977303481027
 72
     1
 10
-188.0
 20
131.0977303481027
 11
-188.0000000000001
 21
-137.9022696518972
 72
     1
 10
-188.0000000000001
 20
-137.9022696518972
 11
187.9999999999999
 21
-137.9022696518973
 72
     1
 10
187.9999999999999
 20
-137.9022696518973
 11
188.0
 21
131.0977303481027
 72
     1
 10
188.0
 20
131.0977303481027
 11
5.699842558461029
 21
131.0977303481027
 72
     1
 10
5.699842558461039
 20
131.0977303481027
 11
5.807022235433489
 21
131.4977303481027
 97
        0
 75
     0
 76
     1
 98
        0
  0
LINE
  5
151
330
CA
100
AcDbEntity
  8
ZUWAKU
  6
Continuous
 62
     6
370
    25
100
AcDbLine
 10
-188.0
 20
131.0977303481027
 30
0.0
 11
-14.30015744153895
 21
131.0977303481027
 31
0.0
  0
ENDBLK
  5
CC
330
CA
100
AcDbEntity
  8
0
100
AcDbBlockEnd
  0
BLOCK
  5
CE
330
CD
100
AcDbEntity
  8
0
100
AcDbBlockBegin
  2
DC_FILL_GROUP_11
 70
     0
 10
0.0
 20
0.0
 30
0.0
  3
DC_FILL_GROUP_11
  1
DC_FILL_GROUP_11
  0
LINE
  5
152
330
CD
100
AcDbEntity
  8
ZUWAKU
  6
Continuous
 62
     6
370
    25
100
AcDbLine
 10
5.807022235433489
 20
131.4977303481027
 30
0.0
 11
188.4
 21
131.4977303481027
 31
0.0
  0
LINE
  5
153
330
CD
100
AcDbEntity
  8
ZUWAKU
  6
Continuous
 62
     6
370
    25
100
AcDbLine
 10
188.4
 20
131.4977303481027
 30
0.0
 11
188.3999999999999
 21
-138.3022696518974
 31
0.0
  0
LINE
  5
154
330
CD
100
AcDbEntity
  8
ZUWAKU
  6
Continuous
 62
     6
370
    25
100
AcDbLine
 10
188.3999999999999
 20
-138.3022696518974
 30
0.0
 11
-188.4000000000001
 21
-138.3022696518972
 31
0.0
  0
LINE
  5
155
330
CD
100
AcDbEntity
  8
ZUWAKU
  6
Continuous
 62
     6
370
    25
100
AcDbLine
 10
-188.4000000000001
 20
-138.3022696518972
 30
0.0
 11
-188.4
 21
131.4977303481027
 31
0.0
  0
ENDBLK
  5
CF
330
CD
100
AcDbEntity
  8
0
100
AcDbBlockEnd
  0
BLOCK
  5
D1
330
D0
100
AcDbEntity
  8
0
100
AcDbBlockBegin
  2
*D12
 70
     1
 10
0.0
 20
0.0
 30
0.0
  3
*D12
  1
*D12
  0
LINE
  5
156
330
D0
100
AcDbEntity
  8
0
  6
Continuous
 62
     7
370
    13
100
AcDbLine
 10
-58.22956247934607
 20
-132.1887871853547
 30
0.0
 11
16.27043752065393
 21
-132.1887871853547
 31
0.0
  0
INSERT
  5
15D
330
D0
100
AcDbEntity
  8
0
 62
     7
100
AcDbBlockReference
  2
_OPEN30
 10
-58.22956247934607
 20
-132.1887871853547
 30
0.0
 41
3.000002807615286
 42
2.999989368223643
 50
180.0
  0
INSERT
  5
15E
330
D0
100
AcDbEntity
  8
0
 62
     7
100
AcDbBlockReference
  2
_OPEN30
 10
16.27043752065393
 20
-132.1887871853547
 30
0.0
 41
3.000002807615286
 42
2.999989368223643
 50
360.0
  0
LINE
  5
15F
330
D0
100
AcDbEntity
  8
0
  6
Continuous
 62
     7
370
    13
100
AcDbLine
 10
16.27043752065393
 20
-82.7570490380083
 30
0.0
 11
16.27043752065393
 21
-133.1887871853547
 31
0.0
  0
MTEXT
  5
161
330
D0
100
AcDbEntity
  8
0
 62
     7
100
AcDbMText
 10
-20.97956247934607
 20
-131.1887871853547
 30
0.0
 40
3.499999999999999
 41
13.125
 71
     8
 72
     1
  1
\T1.00;74.5
  7
dcStyle0
 73
     1
 44
1.0
  0
ENDBLK
  5
D2
330
D0
100
AcDbEntity
  8
0
100
AcDbBlockEnd
  0
BLOCK
  5
D4
330
D3
100
AcDbEntity
  8
0
100
AcDbBlockBegin
  2
*D13
 70
     1
 10
0.0
 20
0.0
 30
0.0
  3
*D13
  1
*D13
  0
LINE
  5
162
330
D3
100
AcDbEntity
  8
0
  6
Continuous
 62
     7
370
    13
100
AcDbLine
 10
-58.22956247934607
 20
-124.7118467659353
 30
0.0
 11
1.770437520653928
 21
-124.7118467659353
 31
0.0
  0
INSERT
  5
163
330
D3
100
AcDbEntity
  8
0
 62
     7
100
AcDbBlockReference
  2
_OPEN30
 10
-58.22956247934607
 20
-124.7118467659353
 30
0.0
 41
3.000002807615286
 42
2.999989368223643
 50
180.0
  0
INSERT
  5
164
330
D3
100
AcDbEntity
  8
0
 62
     7
100
AcDbBlockReference
  2
_OPEN30
 10
1.770437520653928
 20
-124.7118467659353
 30
0.0
 41
3.000002807615286
 42
2.999989368223643
 50
360.0
  0
LINE
  5
165
330
D3
100
AcDbEntity
  8
0
  6
Continuous
 62
     7
370
    13
100
AcDbLine
 10
1.770437520653928
 20
-97.7050041352083
 30
0.0
 11
1.770437520653928
 21
-125.7118467659353
 31
0.0
  0
MTEXT
  5
166
330
D3
100
AcDbEntity
  8
0
 62
     7
100
AcDbMText
 10
-28.22956247934607
 20
-123.7118467659353
 30
0.0
 40
3.499999999999999
 41
8.749999999999998
 71
     8
 72
     1
  1
\T1.00;60
  7
dcStyle0
 73
     1
 44
1.0
  0
ENDBLK
  5
D5
330
D3
100
AcDbEntity
  8
0
100
AcDbBlockEnd
  0
BLOCK
  5
D7
330
D6
100
AcDbEntity
  8
0
100
AcDbBlockBegin
  2
*D14
 70
     1
 10
0.0
 20
0.0
 30
0.0
  3
*D14
  1
*D14
  0
LINE
  5
167
330
D6
100
AcDbEntity
  8
0
  6
Continuous
 62
     7
370
    13
100
AcDbLine
 10
1.770437520653928
 20
-124.7118467659353
 30
0.0
 11
16.27043752065393
 21
-124.7118467659353
 31
0.0
  0
INSERT
  5
168
330
D6
100
AcDbEntity
  8
0
 62
     7
100
AcDbBlockReference
  2
_OPEN30
 10
1.770437520653928
 20
-124.7118467659353
 30
0.0
 41
3.000002807615286
 42
2.999989368223643
 50
180.0
  0
INSERT
  5
169
330
D6
100
AcDbEntity
  8
0
 62
     7
100
AcDbBlockReference
  2
_OPEN30
 10
16.27043752065393
 20
-124.7118467659353
 30
0.0
 41
3.000002807615286
 42
2.999989368223643
 50
360.0
  0
LINE
  5
16A
330
D6
100
AcDbEntity
  8
0
  6
Continuous
 62
     7
370
    13
100
AcDbLine
 10
1.770437520653928
 20
-97.7050041352083
 30
0.0
 11
1.770437520653928
 21
-125.7118467659353
 31
0.0
  0
LINE
  5
16B
330
D6
100
AcDbEntity
  8
0
  6
Continuous
 62
     7
370
    13
100
AcDbLine
 10
16.27043752065393
 20
-134.1561886215985
 30
0.0
 11
16.27043752065393
 21
-123.7118467659353
 31
0.0
  0
MTEXT
  5
16C
330
D6
100
AcDbEntity
  8
0
 62
     7
100
AcDbMText
 10
9.020437520653928
 20
-123.7118467659353
 30
0.0
 40
3.499999999999999
 41
13.125
 71
     8
 72
     1
  1
\T1.00;14.5
  7
dcStyle0
 73
     1
 44
1.0
  0
ENDBLK
  5
D8
330
D6
100
AcDbEntity
  8
0
100
AcDbBlockEnd
  0
BLOCK
  5
DA
330
D9
100
AcDbEntity
  8
0
100
AcDbBlockBegin
  2
DC_GROUP_658HSK-L I型ストライク_12
 70
     0
 10
0.0
 20
0.0
 30
0.0
  3
DC_GROUP_658HSK-L I型ストライク_12
  1
DC_GROUP_658HSK-L I型ストライク_12
  0
LINE
  5
16D
330
D9
100
AcDbEntity
  8
0
  6
Continuous
 62
     7
370
    13
100
AcDbLine
 10
33.89373253756388
 20
43.36360983449173
 30
0.0
 11
34.56360503756391
 21
45.86360983449173
 31
0.0
  0
LINE
  5
16E
330
D9
100
AcDbEntity
  8
0
  6
Continuous
 62
     7
370
    13
100
AcDbLine
 10
34.56360503756391
 20
45.86360983449173
 30
0.0
 11
35.23347753756391
 21
43.36360983449173
 31
0.0
  0
LINE
  5
16F
330
D9
100
AcDbEntity
  8
0
  6
Continuous
 62
     7
370
    13
100
AcDbLine
 10
34.56360503756391
 20
45.86360983449173
 30
0.0
 11
34.56360503756391
 21
43.36360983449173
 31
0.0
  0
LINE
  5
170
330
D9
100
AcDbEntity
  8
0
  6
Continuous
 62
     7
370
    13
100
AcDbLine
 10
35.23347753756391
 20
34.36360983449173
 30
0.0
 11
34.56360503756391
 21
31.86360983449173
 31
0.0
  0
LINE
  5
171
330
D9
100
AcDbEntity
  8
0
  6
Continuous
 62
     7
370
    13
100
AcDbLine
 10
34.56360503756391
 20
31.86360983449173
 30
0.0
 11
33.89373253756388
 21
34.36360983449173
 31
0.0
  0
LINE
  5
172
330
D9
100
AcDbEntity
  8
0
  6
Continuous
 62
     7
370
    13
100
AcDbLine
 10
34.56360503756391
 20
31.86360983449173
 30
0.0
 11
34.56360503756391
 21
34.36360983449173
 31
0.0
  0
LINE
  5
173
330
D9
100
AcDbEntity
  8
0
  6
Continuous
 62
     7
370
    13
100
AcDbLine
 10
24.26272394926391
 20
45.86360983449173
 30
0.0
 11
34.86360503756389
 21
45.86360983449173
 31
0.0
  0
LINE
  5
174
330
D9
100
AcDbEntity
  8
0
  6
Continuous
 62
     7
370
    13
100
AcDbLine
 10
5.770437940863893
 20
31.86360983449173
 30
0.0
 11
34.86360503756389
 21
31.86360983449173
 31
0.0
  0
LINE
  5
175
330
D9
100
AcDbEntity
  8
0
  6
Continuous
 62
     7
370
    13
100
AcDbLine
 10
34.56360503756391
 20
45.86360983449173
 30
0.0
 11
34.56360503756391
 21
31.86360983449173
 31
0.0
  0
TEXT
  5
176
330
D9
100
AcDbEntity
  8
0
 62
     7
100
AcDbText
 10
34.1964018764639
 20
36.27302090279171
 30
0.0
 40
3.499999999999999
  1
14
 50
90.00000000000036
 41
0.7692307692307694
  7
dcStyle0
 72
     5
 11
34.19640187646388
 21
39.77302090279171
 31
0.0
100
AcDbText
  0
ENDBLK
  5
DB
330
D9
100
AcDbEntity
  8
0
100
AcDbBlockEnd
  0
BLOCK
  5
DD
330
DC
100
AcDbEntity
  8
0
100
AcDbBlockBegin
  2
DC_GROUP_658HSK-L I型ストライク_13
 70
     0
 10
0.0
 20
0.0
 30
0.0
  3
DC_GROUP_658HSK-L I型ストライク_13
  1
DC_GROUP_658HSK-L I型ストライク_13
  0
LINE
  5
177
330
DC
100
AcDbEntity
  8
0
  6
Continuous
 62
     7
370
    13
100
AcDbLine
 10
35.23347753756394
 20
70.36360983449173
 30
0.0
 11
34.56360503756391
 21
67.86360983449173
 31
0.0
  0
LINE
  5
178
330
DC
100
AcDbEntity
  8
0
  6
Continuous
 62
     7
370
    13
100
AcDbLine
 10
34.56360503756391
 20
67.86360983449173
 30
0.0
 11
33.89373253756391
 21
70.36360983449173
 31
0.0
  0
LINE
  5
179
330
DC
100
AcDbEntity
  8
0
  6
Continuous
 62
     7
370
    13
100
AcDbLine
 10
34.56360503756391
 20
67.86360983449173
 30
0.0
 11
34.56360503756394
 21
70.36360983449173
 31
0.0
  0
LINE
  5
17A
330
DC
100
AcDbEntity
  8
0
  6
Continuous
 62
     7
370
    13
100
AcDbLine
 10
33.89373253756388
 20
63.36360983449173
 30
0.0
 11
34.56360503756391
 21
65.86360983449173
 31
0.0
  0
LINE
  5
17B
330
DC
100
AcDbEntity
  8
0
  6
Continuous
 62
     7
370
    13
100
AcDbLine
 10
34.56360503756391
 20
65.86360983449173
 30
0.0
 11
35.23347753756391
 21
63.36360983449173
 31
0.0
  0
LINE
  5
17C
330
DC
100
AcDbEntity
  8
0
  6
Continuous
 62
     7
370
    13
100
AcDbLine
 10
34.56360503756391
 20
65.86360983449173
 30
0.0
 11
34.56360503756391
 21
63.36360983449173
 31
0.0
  0
LINE
  5
17D
330
DC
100
AcDbEntity
  8
0
  6
Continuous
 62
     7
370
    13
100
AcDbLine
 10
28.77043794086389
 20
67.86360983449173
 30
0.0
 11
34.86360503756389
 21
67.86360983449173
 31
0.0
  0
LINE
  5
17E
330
DC
100
AcDbEntity
  8
0
  6
Continuous
 62
     7
370
    13
100
AcDbLine
 10
28.77043794086389
 20
65.86360983449173
 30
0.0
 11
34.86360503756389
 21
65.86360983449173
 31
0.0
  0
LINE
  5
17F
330
DC
100
AcDbEntity
  8
0
  6
Continuous
 62
     7
370
    13
100
AcDbLine
 10
34.56360503756391
 20
67.86360983449173
 30
0.0
 11
34.56360503756391
 21
75.73474243599172
 31
0.0
  0
LINE
  5
180
330
DC
100
AcDbEntity
  8
0
  6
Continuous
 62
     7
370
    13
100
AcDbLine
 10
34.56360503756391
 20
67.86360983449173
 30
0.0
 11
34.56360503756391
 21
65.86360983449173
 31
0.0
  0
LINE
  5
181
330
DC
100
AcDbEntity
  8
0
  6
Continuous
 62
     7
370
    13
100
AcDbLine
 10
34.56360503756391
 20
65.86360983449173
 30
0.0
 11
34.56360503756391
 21
60.86360983449173
 31
0.0
  0
TEXT
  5
182
330
DC
100
AcDbEntity
  8
0
 62
     7
100
AcDbText
 10
34.1964018764639
 20
71.55811134839175
 30
0.0
 40
3.499999999999999
  1
2
 50
90.0000000000007
 41
0.7692307692307694
  7
dcStyle0
 72
     5
 11
34.19640187646388
 21
73.30811134839175
 31
0.0
100
AcDbText
  0
ENDBLK
  5
DE
330
DC
100
AcDbEntity
  8
0
100
AcDbBlockEnd
  0
BLOCK
  5
E0
330
DF
100
AcDbEntity
  8
0
100
AcDbBlockBegin
  2
*D17
 70
     1
 10
0.0
 20
0.0
 30
0.0
  3
*D17
  1
*D17
  0
LINE
  5
183
330
DF
100
AcDbEntity
  8
0
  6
Continuous
 62
     7
370
    13
100
AcDbLine
 10
1.770437940863893
 20
81.8636098401917
 30
0.0
 11
26.77043794086389
 21
81.8636098401917
 31
0.0
  0
INSERT
  5
184
330
DF
100
AcDbEntity
  8
0
 62
     7
100
AcDbBlockReference
  2
_OPEN30
 10
1.770437940863893
 20
81.8636098401917
 30
0.0
 41
3.000002807615286
 42
2.999989368223643
 50
180.0
  0
INSERT
  5
185
330
DF
100
AcDbEntity
  8
0
 62
     7
100
AcDbBlockReference
  2
_OPEN30
 10
26.77043794086389
 20
81.8636098401917
 30
0.0
 41
3.000002807615286
 42
2.999989368223643
 50
360.0
  0
LINE
  5
186
330
DF
100
AcDbEntity
  8
0
  6
Continuous
 62
     7
370
    13
100
AcDbLine
 10
1.770437940863893
 20
66.86360983449173
 30
0.0
 11
1.770437940863893
 21
82.8636098401917
 31
0.0
  0
LINE
  5
187
330
DF
100
AcDbEntity
  8
0
  6
Continuous
 62
     7
370
    13
100
AcDbLine
 10
26.77043794086389
 20
68.86360983449173
 30
0.0
 11
26.77043794086389
 21
82.8636098401917
 31
0.0
  0
MTEXT
  5
188
330
DF
100
AcDbEntity
  8
0
 62
     7
100
AcDbMText
 10
14.27043794086389
 20
82.8636098401917
 30
0.0
 40
3.499999999999999
 41
8.749999999999998
 71
     8
 72
     1
  1
\T1.00;25
  7
dcStyle0
 73
     1
 44
1.0
  0
ENDBLK
  5
E1
330
DF
100
AcDbEntity
  8
0
100
AcDbBlockEnd
  0
BLOCK
  5
E3
330
E2
100
AcDbEntity
  8
0
100
AcDbBlockBegin
  2
DC_GROUP_658HSK-L I型ストライク_14
 70
     0
 10
0.0
 20
0.0
 30
0.0
  3
DC_GROUP_658HSK-L I型ストライク_14
  1
DC_GROUP_658HSK-L I型ストライク_14
  0
LINE
  5
189
330
E2
100
AcDbEntity
  8
0
  6
Continuous
 62
     7
370
    13
100
AcDbLine
 10
40.73593024406386
 20
65.36360983449173
 30
0.0
 11
41.40580274406388
 21
67.86360983449173
 31
0.0
  0
LINE
  5
18A
330
E2
100
AcDbEntity
  8
0
  6
Continuous
 62
     7
370
    13
100
AcDbLine
 10
41.40580274406388
 20
67.86360983449173
 30
0.0
 11
42.07567524406388
 21
65.36360983449173
 31
0.0
  0
LINE
  5
18B
330
E2
100
AcDbEntity
  8
0
  6
Continuous
 62
     7
370
    13
100
AcDbLine
 10
41.40580274406388
 20
67.86360983449173
 30
0.0
 11
41.40580274406388
 21
65.36360983449173
 31
0.0
  0
LINE
  5
18C
330
E2
100
AcDbEntity
  8
0
  6
Continuous
 62
     7
370
    13
100
AcDbLine
 10
42.07567524406388
 20
34.36360983449173
 30
0.0
 11
41.40580274406388
 21
31.86360983449173
 31
0.0
  0
LINE
  5
18D
330
E2
100
AcDbEntity
  8
0
  6
Continuous
 62
     7
370
    13
100
AcDbLine
 10
41.40580274406388
 20
31.86360983449173
 30
0.0
 11
40.73593024406389
 21
34.36360983449173
 31
0.0
  0
LINE
  5
18E
330
E2
100
AcDbEntity
  8
0
  6
Continuous
 62
     7
370
    13
100
AcDbLine
 10
41.40580274406388
 20
31.86360983449173
 30
0.0
 11
41.40580274406388
 21
34.36360983449173
 31
0.0
  0
LINE
  5
18F
330
E2
100
AcDbEntity
  8
0
  6
Continuous
 62
     7
370
    13
100
AcDbLine
 10
28.77043794086389
 20
67.86360983449173
 30
0.0
 11
41.7058027440639
 21
67.86360983449173
 31
0.0
  0
LINE
  5
190
330
E2
100
AcDbEntity
  8
0
  6
Continuous
 62
     7
370
    13
100
AcDbLine
 10
5.770437940863893
 20
31.86360983449173
 30
0.0
 11
41.7058027440639
 21
31.86360983449173
 31
0.0
  0
LINE
  5
191
330
E2
100
AcDbEntity
  8
0
  6
Continuous
 62
     7
370
    13
100
AcDbLine
 10
41.40580274406388
 20
67.86360983449173
 30
0.0
 11
41.40580274406388
 21
31.86360983449173
 31
0.0
  0
TEXT
  5
192
330
E2
100
AcDbEntity
  8
0
 62
     7
100
AcDbText
 10
41.0385995829639
 20
47.27302090279172
 30
0.0
 40
3.499999999999999
  1
36
 50
90.00000000000058
 41
0.7692307692307694
  7
dcStyle0
 72
     5
 11
41.03859958296387
 21
50.77302090279172
 31
0.0
100
AcDbText
  0
ENDBLK
  5
E4
330
E2
100
AcDbEntity
  8
0
100
AcDbBlockEnd
  0
BLOCK
  5
E6
330
E5
100
AcDbEntity
  8
0
100
AcDbBlockBegin
  2
DC_GROUP_658HSK-L I型ストライク_15
 70
     0
 10
0.0
 20
0.0
 30
0.0
  3
DC_GROUP_658HSK-L I型ストライク_15
  1
DC_GROUP_658HSK-L I型ストライク_15
  0
LINE
  5
193
330
E5
100
AcDbEntity
  8
0
  6
Continuous
 62
     7
370
    13
100
AcDbLine
 10
33.89373253756388
 20
63.36360983449173
 30
0.0
 11
34.56360503756391
 21
65.86360983449173
 31
0.0
  0
LINE
  5
194
330
E5
100
AcDbEntity
  8
0
  6
Continuous
 62
     7
370
    13
100
AcDbLine
 10
34.56360503756391
 20
65.86360983449173
 30
0.0
 11
35.23347753756391
 21
63.36360983449173
 31
0.0
  0
LINE
  5
195
330
E5
100
AcDbEntity
  8
0
  6
Continuous
 62
     7
370
    13
100
AcDbLine
 10
34.56360503756391
 20
65.86360983449173
 30
0.0
 11
34.56360503756391
 21
63.36360983449173
 31
0.0
  0
LINE
  5
196
330
E5
100
AcDbEntity
  8
0
  6
Continuous
 62
     7
370
    13
100
AcDbLine
 10
35.23347753756391
 20
48.36360983449173
 30
0.0
 11
34.56360503756391
 21
45.86360983449173
 31
0.0
  0
LINE
  5
197
330
E5
100
AcDbEntity
  8
0
  6
Continuous
 62
     7
370
    13
100
AcDbLine
 10
34.56360503756391
 20
45.86360983449173
 30
0.0
 11
33.89373253756388
 21
48.36360983449173
 31
0.0
  0
LINE
  5
198
330
E5
100
AcDbEntity
  8
0
  6
Continuous
 62
     7
370
    13
100
AcDbLine
 10
34.56360503756391
 20
45.86360983449173
 30
0.0
 11
34.56360503756391
 21
48.36360983449173
 31
0.0
  0
LINE
  5
199
330
E5
100
AcDbEntity
  8
0
  6
Continuous
 62
     7
370
    13
100
AcDbLine
 10
28.77043794086389
 20
65.86360983449173
 30
0.0
 11
34.86360503756389
 21
65.86360983449173
 31
0.0
  0
LINE
  5
19A
330
E5
100
AcDbEntity
  8
0
  6
Continuous
 62
     7
370
    13
100
AcDbLine
 10
24.26272394926391
 20
45.86360983449173
 30
0.0
 11
34.86360503756389
 21
45.86360983449173
 31
0.0
  0
LINE
  5
19B
330
E5
100
AcDbEntity
  8
0
  6
Continuous
 62
     7
370
    13
100
AcDbLine
 10
34.56360503756391
 20
65.86360983449173
 30
0.0
 11
34.56360503756391
 21
45.86360983449173
 31
0.0
  0
TEXT
  5
19C
330
E5
100
AcDbEntity
  8
0
 62
     7
100
AcDbText
 10
34.1964018764639
 20
53.27302090279173
 30
0.0
 40
3.499999999999999
  1
20
 50
90.0000000000007
 41
0.7692307692307694
  7
dcStyle0
 72
     5
 11
34.19640187646386
 21
56.77302090279173
 31
0.0
100
AcDbText
  0
ENDBLK
  5
E7
330
E5
100
AcDbEntity
  8
0
100
AcDbBlockEnd
  0
BLOCK
  5
158
330
157
100
AcDbEntity
  8
0
100
AcDbBlockBegin
  2
_OPEN30
 70
     0
 10
0.0
 20
0.0
 30
0.0
  3
_OPEN30
  1
_OPEN30
  0
LINE
  5
15A
330
157
100
AcDbEntity
  8
0
  6
ByBlock
 62
     0
370
    -2
100
AcDbLine
 10
-1.0
 20
0.267949
 30
0.0
 11
0.0
 21
0.0
 31
0.0
  0
LINE
  5
15B
330
157
100
AcDbEntity
  8
0
  6
ByBlock
 62
     0
370
    -2
100
AcDbLine
 10
0.0
 20
0.0
 30
0.0
 11
-1.0
 21
-0.267949
 31
0.0
  0
LINE
  5
15C
330
157
100
AcDbEntity
  8
0
  6
ByBlock
 62
     0
370
    -2
100
AcDbLine
 10
0.0
 20
0.0
 30
0.0
 11
-1.0
 21
0.0
 31
0.0
  0
ENDBLK
  5
159
330
157
100
AcDbEntity
  8
0
100
AcDbBlockEnd
  0
BLOCK
  5
33F
330
33E
100
AcDbEntity
  8
0
100
AcDbBlockBegin
  2
_DOT
 70
     0
 10
0.0
 20
0.0
 30
0.0
  3
_DOT
  1
_DOT
  0
POLYLINE
  5
341
330
33E
100
AcDbEntity
  8
0
  6
ByBlock
 62
     0
100
AcDb2dPolyline
 66
     1
 10
0.0
 20
0.0
 30
0.0
 70
     1
 40
0.5
 41
0.5
  0
VERTEX
  5
343
330
341
100
AcDbEntity
  8
0
  6
ByBlock
 62
     0
100
AcDbVertex
100
AcDb2dVertex
 10
-0.25
 20
0.0
 30
0.0
 42
1.0
  0
VERTEX
  5
344
330
341
100
AcDbEntity
  8
0
  6
ByBlock
 62
     0
100
AcDbVertex
100
AcDb2dVertex
 10
0.25
 20
0.0
 30
0.0
 42
1.0
  0
SEQEND
  5
345
330
341
100
AcDbEntity
  8
0
  6
ByBlock
 62
     0
  0
LINE
  5
342
330
33E
100
AcDbEntity
  8
0
  6
ByBlock
 62
     0
370
    -2
100
AcDbLine
 10
-0.5
 20
0.0
 30
0.0
 11
-1.0
 21
0.0
 31
0.0
  0
ENDBLK
  5
340
330
33E
100
AcDbEntity
  8
0
100
AcDbBlockEnd
  0
ENDSEC
  0
SECTION
  2
ENTITIES
  0
LINE
  5
19D
330
1F
100
AcDbEntity
  8
0
  6
Continuous
 62
     7
370
    13
100
AcDbLine
 10
-57.22956247934607
 20
-86.65602852360828
 30
0.0
 11
-57.22956247934607
 21
-84.30704903800829
 31
0.0
  0
LINE
  5
19E
330
1F
100
AcDbEntity
  8
0
  6
Continuous
 62
     7
370
    13
100
AcDbLine
 10
-59.22956247934607
 20
-84.30704903800829
 30
0.0
 11
-59.22956247934607
 21
-86.65602852360828
 31
0.0
  0
LINE
  5
19F
330
1F
100
AcDbEntity
  8
0
  6
Continuous
 62
     7
370
    13
100
AcDbLine
 10
-59.22956247934607
 20
-76.85806955250828
 30
0.0
 11
-59.22956247934607
 21
-79.20704903800828
 31
0.0
  0
LINE
  5
1A0
330
1F
100
AcDbEntity
  8
0
  6
Continuous
 62
     7
370
    13
100
AcDbLine
 10
-57.22956247934607
 20
-79.20704903800828
 30
0.0
 11
-57.22956247934607
 21
-76.85806955250828
 31
0.0
  0
LINE
  5
1A1
330
1F
100
AcDbEntity
  8
0
  6
Continuous
 62
     7
370
    13
100
AcDbLine
 10
-58.22956247934607
 20
21.3443677960917
 30
0.0
 11
-58.22956247934607
 21
19.24766228129171
 31
0.0
  0
LINE
  5
1A2
330
1F
100
AcDbEntity
  8
0
  6
Continuous
 62
     7
370
    13
100
AcDbLine
 10
-2.229562479346072
 20
47.86360983449173
 30
0.0
 11
-2.229562479346072
 21
19.24766228129171
 31
0.0
  0
LINE
  5
1A3
330
1F
100
AcDbEntity
  8
0
  6
Continuous
 62
     7
370
    13
100
AcDbLine
 10
-6.229562479346072
 20
53.86360983449173
 30
0.0
 11
-9.255178028246064
 21
53.86360983449173
 31
0.0
  0
LINE
  5
1A4
330
1F
100
AcDbEntity
  8
0
  6
Continuous
 62
     7
370
    13
100
AcDbLine
 10
-4.729562479346072
 20
49.86360983449173
 30
0.0
 11
-9.255178028246064
 21
49.86360983449173
 31
0.0
  0
LINE
  5
1A5
330
1F
100
AcDbEntity
  8
0
  6
Continuous
 62
     7
370
    13
100
AcDbLine
 10
-6.229562479346072
 20
41.86360983449173
 30
0.0
 11
-9.255178028246064
 21
41.86360983449173
 31
0.0
  0
LINE
  5
1A6
330
1F
100
AcDbEntity
  8
0
  6
Continuous
 62
     7
370
    13
100
AcDbLine
 10
-8.955178028246081
 20
49.86360983449173
 30
0.0
 11
-8.955178028246081
 21
54.86360983449173
 31
0.0
  0
LINE
  5
1A7
330
1F
100
AcDbEntity
  8
0
  6
Continuous
 62
     7
370
    13
100
AcDbLine
 10
-8.955178028246081
 20
49.86360983449173
 30
0.0
 11
-8.955178028246081
 21
41.86360983449173
 31
0.0
  0
LINE
  5
1A8
330
1F
100
AcDbEntity
  8
0
  6
Continuous
 62
     7
370
    13
100
AcDbLine
 10
7.270437520653928
 20
47.86360983449173
 30
0.0
 11
7.270437520653928
 21
19.24766228129171
 31
0.0
  0
LINE
  5
1A9
330
1F
100
AcDbEntity
  8
0
  6
Continuous
 62
     7
370
    13
100
AcDbLine
 10
16.27043752065393
 20
40.86360983449173
 30
0.0
 11
16.27043752065393
 21
19.24766228129171
 31
0.0
  0
LINE
  5
1AA
330
1F
100
AcDbEntity
  8
0
  6
Continuous
 62
     7
370
    13
100
AcDbLine
 10
-58.22956247934607
 20
116.8547971238918
 30
0.0
 11
-58.22956247934607
 21
118.3299098187917
 31
0.0
  0
LINE
  5
1AB
330
1F
100
AcDbEntity
  8
0
  6
Continuous
 62
     7
370
    13
100
AcDbLine
 10
-8.229562479346072
 20
110.4636098344917
 30
0.0
 11
-8.229562479346072
 21
118.3299098187917
 31
0.0
  0
LINE
  5
1AC
330
1F
100
AcDbEntity
  8
0
  6
Continuous
 62
     7
370
    13
100
AcDbLine
 10
89.48553489625394
 20
5.115070567291694
 30
0.0
 11
89.48553489625394
 21
19.4398431410917
 31
0.0
  0
LINE
  5
1AD
330
1F
100
AcDbEntity
  8
0
  6
Continuous
 62
     7
370
    13
100
AcDbLine
 10
92.48553489625394
 20
8.115070567291696
 30
0.0
 11
78.10350701295394
 21
8.115070567291696
 31
0.0
  0
LINE
  5
1AE
330
1F
100
AcDbEntity
  8
0
  6
Continuous
 62
     7
370
    13
100
AcDbLine
 10
110.2855348962539
 20
-20.3849294327083
 30
0.0
 11
140.8351873863539
 21
-20.3849294327083
 31
0.0
  0
LINE
  5
1AF
330
1F
100
AcDbEntity
  8
0
  6
Continuous
 62
     7
370
    13
100
AcDbLine
 10
110.2855348962539
 20
-73.38492943270829
 30
0.0
 11
140.8351873863539
 21
-73.38492943270829
 31
0.0
  0
LINE
  5
1B0
330
1F
100
AcDbEntity
  8
0
  6
Continuous
 62
     7
370
    13
100
AcDbLine
 10
117.9855348962539
 20
-33.3849294327083
 30
0.0
 11
133.9563635646539
 21
-33.3849294327083
 31
0.0
  0
LINE
  5
1B1
330
1F
100
AcDbEntity
  8
0
  6
Continuous
 62
     7
370
    13
100
AcDbLine
 10
117.9855348962539
 20
-60.38492943270829
 30
0.0
 11
133.9563635646539
 21
-60.38492943270829
 31
0.0
  0
LINE
  5
1B2
330
1F
100
AcDbEntity
  8
0
  6
Continuous
 62
     7
370
    13
100
AcDbLine
 10
93.98553489625394
 20
-61.50883298240829
 30
0.0
 11
93.98553489625394
 21
-110.8582051557083
 31
0.0
  0
LINE
  5
1B3
330
1F
100
AcDbEntity
  8
0
  6
Continuous
 62
     7
370
    13
100
AcDbLine
 10
103.4855348962539
 20
-107.8635770528083
 30
0.0
 11
103.4855348962539
 21
-110.8582051557083
 31
0.0
  0
LINE
  5
1B4
330
1F
100
AcDbEntity
  8
0
  6
Continuous
 62
     7
370
    13
100
AcDbLine
 10
115.9855348962539
 20
-61.01527444670829
 30
0.0
 11
115.9855348962539
 21
-110.8582051557083
 31
0.0
  0
LINE
  5
1B5
330
1F
100
AcDbEntity
  8
0
  6
Continuous
 62
     7
370
    13
100
AcDbLine
 10
110.2855348962539
 20
-7.384929432708306
 30
0.0
 11
147.6340198415539
 21
-7.384929432708306
 31
0.0
  0
LINE
  5
1B6
330
1F
100
AcDbEntity
  8
0
  6
Continuous
 62
     7
370
    13
100
AcDbLine
 10
110.2855348962539
 20
-86.38492943270829
 30
0.0
 11
147.6340198415539
 21
-86.38492943270829
 31
0.0
  0
LINE
  5
1B7
330
1F
100
AcDbEntity
  8
0
  6
Continuous
 62
     7
370
    13
100
AcDbLine
 10
125.4855348962539
 20
10.1150705672917
 30
0.0
 11
125.4855348962539
 21
19.4398431410917
 31
0.0
  0
LINE
  5
1B8
330
1F
100
AcDbEntity
  8
0
  6
Continuous
 62
     7
370
    13
100
AcDbLine
 10
92.48553489625394
 20
-101.8849294327083
 30
0.0
 11
78.10350701295394
 21
-101.8849294327083
 31
0.0
  0
LINE
  5
1B9
330
1F
100
AcDbEntity
  8
0
  6
Continuous
 62
     7
370
    13
100
AcDbLine
 10
98.48553489625394
 20
-72.2610258831083
 30
0.0
 11
98.48553489625394
 21
-64.8309313828083
 31
0.0
  0
LINE
  5
1BA
330
1F
100
AcDbEntity
  8
0
  6
Continuous
 62
     7
370
    13
100
AcDbLine
 10
108.4855348962539
 20
-72.75458441880829
 30
0.0
 11
108.4855348962539
 21
-64.8309313828083
 31
0.0
  0
LINE
  5
1BB
330
1F
100
AcDbEntity
  8
0
  6
Continuous
 62
     7
370
    13
100
AcDbLine
 10
98.48553489625394
 20
-65.1309313828083
 30
0.0
 11
108.4855348962539
 21
-65.1309313828083
 31
0.0
  0
LINE
  5
1BC
330
1F
100
AcDbEntity
  8
0
  6
Continuous
 62
     7
370
    13
100
AcDbLine
 10
18.64055273835393
 20
-4.2050041352083
 30
0.0
 11
34.32728364975392
 21
-4.2050041352083
 31
0.0
  0
LINE
  5
1BD
330
1F
100
AcDbEntity
  8
0
  6
Continuous
 62
     7
370
    13
100
AcDbLine
 10
32.15689635795394
 20
-46.7050041352083
 30
0.0
 11
34.32728364975392
 21
-46.7050041352083
 31
0.0
  0
LINE
  5
1BE
330
1F
100
AcDbEntity
  8
0
  6
Continuous
 62
     7
370
    13
100
AcDbLine
 10
11.27043752065393
 20
4.374478231491706
 30
0.0
 11
11.27043752065393
 21
12.10971200359171
 31
0.0
  0
LINE
  5
1BF
330
1F
100
AcDbEntity
  8
0
  6
Continuous
 62
     7
370
    13
100
AcDbLine
 10
21.77043752065393
 20
-37.24567122020829
 30
0.0
 11
21.77043752065393
 21
12.10971200359171
 31
0.0
  0
LINE
  5
1C0
330
1F
100
AcDbEntity
  8
0
  6
Continuous
 62
     7
370
    13
100
AcDbLine
 10
26.77043752065393
 20
4.2949958647917
 30
0.0
 11
26.77043752065393
 21
12.10971200359171
 31
0.0
  0
LINE
  5
1C1
330
1F
100
AcDbEntity
  8
0
  6
Continuous
 62
     7
370
    13
100
AcDbLine
 10
26.77043752065393
 20
11.8097120035917
 30
0.0
 11
21.77043752065393
 21
11.8097120035917
 31
0.0
  0
LINE
  5
1C2
330
1F
100
AcDbEntity
  8
0
  6
Continuous
 62
     7
370
    13
100
AcDbLine
 10
22.77043752065393
 20
8.294995864791701
 30
0.0
 11
41.16244844485394
 21
8.294995864791701
 31
0.0
  0
LINE
  5
1C3
330
1F
100
AcDbEntity
  8
0
  6
Continuous
 62
     7
370
    13
100
AcDbLine
 10
9.270437520653928
 20
-0.7050041352083003
 30
0.0
 11
-0.9881666932460575
 21
-0.7050041352083003
 31
0.0
  0
LINE
  5
1C4
330
1F
100
AcDbEntity
  8
0
  6
Continuous
 62
     7
370
    13
100
AcDbLine
 10
9.270437520653928
 20
-7.7050041352083
 30
0.0
 11
-0.9881666932460575
 21
-7.7050041352083
 31
0.0
  0
LINE
  5
1C5
330
1F
100
AcDbEntity
  8
0
  6
Continuous
 62
     7
370
    13
100
AcDbLine
 10
-0.6881666932460746
 20
-0.7050041352083003
 30
0.0
 11
-0.6881666932460746
 21
-7.7050041352083
 31
0.0
  0
LINE
  5
1C6
330
1F
100
AcDbEntity
  8
0
  6
Continuous
 62
     7
370
    13
100
AcDbLine
 10
9.020437520653928
 20
-7.4550041352083
 30
0.0
 11
9.020437520653928
 21
-19.49704168700831
 31
0.0
  0
LINE
  5
1C7
330
1F
100
AcDbEntity
  8
0
  6
Continuous
 62
     7
370
    13
100
AcDbLine
 10
13.52043752065393
 20
-7.4550041352083
 30
0.0
 11
13.52043752065393
 21
-19.49704168700831
 31
0.0
  0
LINE
  5
1C8
330
1F
100
AcDbEntity
  8
0
  6
Continuous
 62
     7
370
    13
100
AcDbLine
 10
9.020437520653928
 20
-19.19704168700829
 30
0.0
 11
13.52043752065393
 21
-19.19704168700829
 31
0.0
  0
LINE
  5
1C9
330
1F
100
AcDbEntity
  8
0
  6
Continuous
 62
     7
370
    13
100
AcDbLine
 10
22.77043752065393
 20
-100.2050041352083
 30
0.0
 11
23.68287606415393
 21
-100.2050041352083
 31
0.0
  0
LINE
  5
1CA
330
1F
100
AcDbEntity
  8
0
  6
Continuous
 62
     7
370
    13
100
AcDbLine
 10
22.77043752065393
 20
-103.2050041352083
 30
0.0
 11
23.68287606415393
 21
-103.2050041352083
 31
0.0
  0
LINE
  5
1CB
330
1F
100
AcDbEntity
  8
0
  6
Continuous
 62
     7
370
    13
100
AcDbLine
 10
23.38287606415392
 20
-100.2050041352083
 30
0.0
 11
23.38287606415392
 21
-103.2050041352083
 31
0.0
  0
LINE
  5
1CC
330
1F
100
AcDbEntity
  8
0
  6
Continuous
 62
     7
370
    13
100
AcDbLine
 10
22.77043752065393
 20
-101.7050041352083
 30
0.0
 11
41.16244844485394
 21
-101.7050041352083
 31
0.0
  0
LINE
  5
1CD
330
1F
100
AcDbEntity
  8
0
  6
Continuous
 62
     7
370
    13
100
AcDbLine
 10
17.41742177885394
 20
-89.2050041352083
 30
0.0
 11
34.32728364975392
 21
-89.2050041352083
 31
0.0
  0
ARC
  5
1CE
330
1F
100
AcDbEntity
  8
0
  6
DIVIDE
 62
     7
370
    13
100
AcDbCircle
 10
-90.26678638304608
 20
-81.68683951930828
 30
0.0
 40
2.9025599781
100
AcDbArc
 50
96.6837248429998
 51
147.6100307647001
  0
LINE
  5
1CF
330
1F
100
AcDbEntity
  8
0
  6
DIVIDE
 62
     7
370
    13
100
AcDbLine
 10
-83.32636265764606
 20
-77.83674677740828
 30
0.0
 11
-90.62126670384606
 21
-78.80503082680829
 31
0.0
  0
ARC
  5
1D0
330
1F
100
AcDbEntity
  8
0
  6
DIVIDE
 62
     7
370
    13
100
AcDbCircle
 10
196.7038853369539
 20
-356.1762247496083
 30
0.0
 40
395.172822286
100
AcDbArc
 50
134.7313883607
 51
135.2263754549
  0
LINE
  5
1D1
330
1F
100
AcDbEntity
  8
0
  6
DIVIDE
 62
     7
370
    13
100
AcDbLine
 10
-93.22722212804607
 20
-81.77913221260829
 30
0.0
 11
-93.22722314604607
 21
-81.78704482630829
 31
0.0
  0
ARC
  5
1D2
330
1F
100
AcDbEntity
  8
0
  6
DIVIDE
 62
     7
370
    13
100
AcDbCircle
 10
-58.22956247934607
 20
-66.95704903800828
 30
0.0
 40
17.5
100
AcDbArc
 50
0.0
 51
180.0
  0
ARC
  5
1D3
330
1F
100
AcDbEntity
  8
0
  6
DIVIDE
 62
     7
370
    13
100
AcDbCircle
 10
-58.22956247934607
 20
-96.55704903800829
 30
0.0
 40
17.5
100
AcDbArc
 50
180.0
 51
0.0
  0
LINE
  5
1D4
330
1F
100
AcDbEntity
  8
0
  6
DIVIDE
 62
     7
370
    13
100
AcDbLine
 10
-40.72956247934607
 20
-66.95704903800828
 30
0.0
 11
-40.72956240484606
 21
-75.25704890390828
 31
0.0
  0
LINE
  5
1D5
330
1F
100
AcDbEntity
  8
0
  6
DIVIDE
 62
     7
370
    13
100
AcDbLine
 10
-40.72956240484606
 20
-88.25704917210828
 30
0.0
 11
-40.72956247934607
 21
-96.55704903800829
 31
0.0
  0
LINE
  5
1D6
330
1F
100
AcDbEntity
  8
0
  6
DIVIDE
 62
     7
370
    13
100
AcDbLine
 10
-75.72956247934607
 20
-96.55704903800829
 30
0.0
 11
-75.72956255384608
 21
-88.25704917210828
 31
0.0
  0
LINE
  5
1D7
330
1F
100
AcDbEntity
  8
0
  6
DIVIDE
 62
     7
370
    13
100
AcDbLine
 10
-75.72956255384608
 20
-75.25704890390828
 30
0.0
 11
-75.72956247934607
 21
-66.95704903800828
 31
0.0
  0
ARC
  5
1D8
330
1F
100
AcDbEntity
  8
0
  6
DIVIDE
 62
     7
370
    13
100
AcDbCircle
 10
-90.22724230024608
 20
-81.77912913070828
 30
0.0
 40
2.9999808458
100
AcDbArc
 50
146.4876207072001
 51
180.0
  0
LINE
  5
1D9
330
1F
100
AcDbEntity
  8
0
  6
DIVIDE
 62
     7
370
    13
100
AcDbLine
 10
-14.22956271774606
 20
-86.75704892630829
 30
0.0
 11
-70.34956256604607
 21
-86.75704892630829
 31
0.0
  0
LINE
  5
1DA
330
1F
100
AcDbEntity
  8
0
  6
DIVIDE
 62
     7
370
    13
100
AcDbLine
 10
-14.22956271774606
 20
-76.75704914980828
 30
0.0
 11
-70.34956256604607
 21
-76.75704914980828
 31
0.0
  0
ARC
  5
1DB
330
1F
100
AcDbEntity
  8
0
  6
DIVIDE
 62
     7
370
    13
100
AcDbCircle
 10
-68.67012129694606
 20
-11.25719785690829
 30
0.0
 40
75.5185277562
100
AcDbArc
 50
264.1635322922
 51
268.725705693
  0
ARC
  5
1DC
330
1F
100
AcDbEntity
  8
0
  6
DIVIDE
 62
     7
370
    13
100
AcDbCircle
 10
-34.93448299624606
 20
376.0550598615916
 30
0.0
 40
464.2901309257
100
AcDbArc
 50
264.023712396
 51
264.8823650886
  0
ARC
  5
1DD
330
1F
100
AcDbEntity
  8
0
  6
DIVIDE
 62
     7
370
    13
100
AcDbCircle
 10
-54.31218260734607
 20
-331.4738023720083
 30
0.0
 40
255.2910521228
100
AcDbArc
 50
94.9520821829
 51
96.5258413891
  0
ARC
  5
1DE
330
1F
100
AcDbEntity
  8
0
  6
DIVIDE
 62
     7
370
    13
100
AcDbCircle
 10
-70.21621774184607
 20
-126.5977661739083
 30
0.0
 40
49.8408954005
100
AcDbArc
 50
90.15328987770003
 51
97.06864929140002
  0
LINE
  5
1DF
330
1F
100
AcDbEntity
  8
0
  6
DIVIDE
 62
     7
370
    13
100
AcDbLine
 10
-76.34956261824607
 20
-86.75704892630829
 30
0.0
 11
-76.34956261824607
 21
-86.38425167550828
 31
0.0
  0
LINE
  5
1E0
330
1F
100
AcDbEntity
  8
0
  6
DIVIDE
 62
     7
370
    13
100
AcDbLine
 10
-4.229562479346072
 20
-86.75704903800829
 30
0.0
 11
-4.229562479346072
 21
-87.29771065860828
 31
0.0
  0
LINE
  5
1E1
330
1F
100
AcDbEntity
  8
0
  6
DIVIDE
 62
     7
370
    13
100
AcDbLine
 10
-4.239563483046084
 20
-88.25704917210828
 30
0.0
 11
-76.34956261824607
 21
-88.25704917210828
 31
0.0
  0
LINE
  5
1E2
330
1F
100
AcDbEntity
  8
0
  6
DIVIDE
 62
     7
370
    13
100
AcDbLine
 10
-76.34956261824607
 20
-88.25704917210828
 30
0.0
 11
-76.34956261824607
 21
-86.75704892630829
 31
0.0
  0
ARC
  5
1E3
330
1F
100
AcDbEntity
  8
0
  6
DIVIDE
 62
     7
370
    13
100
AcDbCircle
 10
-75.13530342144608
 20
-52.76625497330828
 30
0.0
 40
34.0124756369
100
AcDbArc
 50
255.1700234166
 51
267.9540826462
  0
LINE
  5
1E4
330
1F
100
AcDbEntity
  8
0
  6
DIVIDE
 62
     7
370
    13
100
AcDbLine
 10
-81.22956252404606
 20
-88.25704917210828
 30
0.0
 11
-76.34956261824607
 21
-88.25704917210828
 31
0.0
  0
LINE
  5
1E5
330
1F
100
AcDbEntity
  8
0
  6
DIVIDE
 62
     7
370
    13
100
AcDbLine
 10
-81.22956252404606
 20
-88.25704917210828
 30
0.0
 11
-83.84084946224607
 21
-85.64576176830829
 31
0.0
  0
LINE
  5
1E6
330
1F
100
AcDbEntity
  8
0
  6
DIVIDE
 62
     7
370
    13
100
AcDbLine
 10
-76.34956261824607
 20
-77.13569044970829
 30
0.0
 11
-76.34956261824607
 21
-76.75704914980828
 31
0.0
  0
LINE
  5
1E7
330
1F
100
AcDbEntity
  8
0
  6
DIVIDE
 62
     7
370
    13
100
AcDbLine
 10
-76.34956261824607
 20
-76.75704914980828
 30
0.0
 11
-76.34956261824607
 21
-75.25704890390828
 31
0.0
  0
LINE
  5
1E8
330
1F
100
AcDbEntity
  8
0
  6
DIVIDE
 62
     7
370
    13
100
AcDbLine
 10
-76.34956261824607
 20
-75.25704890390828
 30
0.0
 11
-4.230563181746078
 21
-75.25704890390828
 31
0.0
  0
LINE
  5
1E9
330
1F
100
AcDbEntity
  8
0
  6
DIVIDE
 62
     7
370
    13
100
AcDbLine
 10
-4.229562479346072
 20
-76.21638741750829
 30
0.0
 11
-4.229562479346072
 21
-76.75704903800829
 31
0.0
  0
LINE
  5
1EA
330
1F
100
AcDbEntity
  8
0
  6
DIVIDE
 62
     7
370
    13
100
AcDbLine
 10
-83.84084946224607
 20
-85.64576176830829
 30
0.0
 11
-83.84084946224607
 21
-85.64020689480829
 31
0.0
  0
LINE
  5
1EB
330
1F
100
AcDbEntity
  8
0
  6
DIVIDE
 62
     7
370
    13
100
AcDbLine
 10
-83.84084946224607
 20
-85.64020689480829
 30
0.0
 11
-83.27491453594607
 21
-85.71168683370828
 31
0.0
  0
LINE
  5
1EC
330
1F
100
AcDbEntity
  8
0
  6
DIVIDE
 62
     7
370
    13
100
AcDbLine
 10
-81.22956252404606
 20
-75.25704890390828
 30
0.0
 11
-76.34956261824607
 21
-75.25704890390828
 31
0.0
  0
ARC
  5
1ED
330
1F
100
AcDbEntity
  8
0
  6
DIVIDE
 62
     7
370
    13
100
AcDbCircle
 10
-75.48708161574606
 20
-108.3764746044083
 30
0.0
 40
31.6311861864
100
AcDbArc
 50
91.56246580379997
 51
105.3134281334
  0
LINE
  5
1EE
330
1F
100
AcDbEntity
  8
0
  6
DIVIDE
 62
     7
370
    13
100
AcDbLine
 10
-81.41242212364608
 20
-75.43990896920829
 30
0.0
 11
-81.22956252404606
 21
-75.25704890390828
 31
0.0
  0
LINE
  5
1EF
330
1F
100
AcDbEntity
  8
0
  6
DIVIDE
 62
     7
370
    13
100
AcDbLine
 10
-83.84084946224607
 20
-77.90503693650828
 30
0.0
 11
-83.84084946224607
 21
-77.86833630780829
 31
0.0
  0
LINE
  5
1F0
330
1F
100
AcDbEntity
  8
0
  6
DIVIDE
 62
     7
370
    13
100
AcDbLine
 10
-4.229562479346072
 20
-86.75704903800829
 30
0.0
 11
-4.229562479346072
 21
-76.75704903800829
 31
0.0
  0
LINE
  5
1F1
330
1F
100
AcDbEntity
  8
0
  6
DIVIDE
 62
     7
370
    13
100
AcDbLine
 10
-83.84084946224607
 20
-85.64576176830829
 30
0.0
 11
-90.61536623844606
 21
-84.76183117270828
 31
0.0
  0
ARC
  5
1F2
330
1F
100
AcDbEntity
  8
0
  6
DIVIDE
 62
     7
370
    13
100
AcDbCircle
 10
-90.22722348964606
 20
-81.78704661830828
 30
0.0
 40
2.9999996564
100
AcDbArc
 50
180.0
 51
262.5661798324001
  0
ARC
  5
1F3
330
1F
100
AcDbEntity
  8
0
  6
DIVIDE
 62
     7
370
    13
100
AcDbCircle
 10
8.270437520653928
 20
-81.75704903800829
 30
0.0
 40
8.0
100
AcDbArc
 50
305.6590876960999
 51
54.34091230389993
  0
LINE
  5
1F4
330
1F
100
AcDbEntity
  8
0
  6
DIVIDE
 62
     7
370
    13
100
AcDbLine
 10
12.93412704715394
 20
-88.25704903800829
 30
0.0
 11
-4.229562479346072
 21
-88.25704903800829
 31
0.0
  0
LINE
  5
1F5
330
1F
100
AcDbEntity
  8
0
  6
DIVIDE
 62
     7
370
    13
100
AcDbLine
 10
-4.229562479346072
 20
-88.25704903800829
 30
0.0
 11
-4.229562479346072
 21
-87.29771065860828
 31
0.0
  0
LINE
  5
1F6
330
1F
100
AcDbEntity
  8
0
  6
DIVIDE
 62
     7
370
    13
100
AcDbLine
 10
-4.229562479346072
 20
-75.25704903800829
 30
0.0
 11
12.93412704715394
 21
-75.25704903800829
 31
0.0
  0
LINE
  5
1F7
330
1F
100
AcDbEntity
  8
0
  6
DIVIDE
 62
     7
370
    13
100
AcDbLine
 10
-4.229562479346072
 20
-76.21638741750829
 30
0.0
 11
-4.229562479346072
 21
-75.25704903800829
 31
0.0
  0
LINE
  5
1F8
330
1F
100
AcDbEntity
  8
0
  6
DIVIDE
 62
     7
370
    13
100
AcDbLine
 10
-37.58080734614606
 20
-78.95489964540829
 30
0.0
 11
-37.85102127794607
 21
-79.22511404280829
 31
0.0
  0
LINE
  5
1F9
330
1F
100
AcDbEntity
  8
0
  6
DIVIDE
 62
     7
370
    13
100
AcDbLine
 10
-37.85102127794607
 20
-79.22511404280829
 30
0.0
 11
-38.22311444884608
 21
-79.59720767940829
 31
0.0
  0
LINE
  5
1FA
330
1F
100
AcDbEntity
  8
0
  6
DIVIDE
 62
     7
370
    13
100
AcDbLine
 10
-38.22311444884608
 20
-79.59720767940829
 30
0.0
 11
-38.68211677974608
 21
-80.05620896250828
 31
0.0
  0
LINE
  5
1FB
330
1F
100
AcDbEntity
  8
0
  6
DIVIDE
 62
     7
370
    13
100
AcDbLine
 10
-38.68211677974608
 20
-80.05620896250828
 30
0.0
 11
-39.20955455614606
 21
-80.58364813580829
 31
0.0
  0
LINE
  5
1FC
330
1F
100
AcDbEntity
  8
0
  6
DIVIDE
 62
     7
370
    13
100
AcDbLine
 10
-39.20955455614606
 20
-80.58364813580829
 30
0.0
 11
-39.78421038694606
 21
-81.15830245330828
 31
0.0
  0
LINE
  5
1FD
330
1F
100
AcDbEntity
  8
0
  6
DIVIDE
 62
     7
370
    13
100
AcDbLine
 10
-39.78421038694606
 20
-81.15830245330828
 30
0.0
 11
-40.38295580754607
 21
-81.75704903800829
 31
0.0
  0
LINE
  5
1FE
330
1F
100
AcDbEntity
  8
0
  6
DIVIDE
 62
     7
370
    13
100
AcDbLine
 10
-40.38295580754607
 20
-81.75704903800829
 30
0.0
 11
-39.78421038694606
 21
-82.35579562280829
 31
0.0
  0
LINE
  5
1FF
330
1F
100
AcDbEntity
  8
0
  6
DIVIDE
 62
     7
370
    13
100
AcDbLine
 10
-39.78421038694606
 20
-82.35579562280829
 30
0.0
 11
-39.20955455614606
 21
-82.93044994020829
 31
0.0
  0
LINE
  5
200
330
1F
100
AcDbEntity
  8
0
  6
DIVIDE
 62
     7
370
    13
100
AcDbLine
 10
-39.20955455614606
 20
-82.93044994020829
 30
0.0
 11
-38.68211677974608
 21
-83.45788911350829
 31
0.0
  0
LINE
  5
201
330
1F
100
AcDbEntity
  8
0
  6
DIVIDE
 62
     7
370
    13
100
AcDbLine
 10
-38.68211677974608
 20
-83.45788911350829
 30
0.0
 11
-38.22311444884608
 21
-83.91689039670828
 31
0.0
  0
LINE
  5
202
330
1F
100
AcDbEntity
  8
0
  6
DIVIDE
 62
     7
370
    13
100
AcDbLine
 10
-38.22311444884608
 20
-83.91689039670828
 30
0.0
 11
-37.85102127794607
 21
-84.28898403320828
 31
0.0
  0
LINE
  5
203
330
1F
100
AcDbEntity
  8
0
  6
DIVIDE
 62
     7
370
    13
100
AcDbLine
 10
-37.85102127794607
 20
-84.28898403320828
 30
0.0
 11
-37.58080734614606
 21
-84.55919843070829
 31
0.0
  0
LINE
  5
204
330
1F
100
AcDbEntity
  8
0
  6
DIVIDE
 62
     7
370
    13
100
AcDbLine
 10
-37.30933240364607
 20
-78.78269763570829
 30
0.0
 11
-37.44848503474606
 21
-78.84791606010829
 31
0.0
  0
LINE
  5
205
330
1F
100
AcDbEntity
  8
0
  6
DIVIDE
 62
     7
370
    13
100
AcDbLine
 10
-37.44848503474606
 20
-78.84791606010829
 30
0.0
 11
-37.58080734614606
 21
-78.95489964540829
 31
0.0
  0
LINE
  5
206
330
1F
100
AcDbEntity
  8
0
  6
DIVIDE
 62
     7
370
    13
100
AcDbLine
 10
-37.58080734614606
 20
-84.55919843070829
 30
0.0
 11
-37.45019494304606
 21
-84.66509935350828
 31
0.0
  0
LINE
  5
207
330
1F
100
AcDbEntity
  8
0
  6
DIVIDE
 62
     7
370
    13
100
AcDbLine
 10
-37.45019494304606
 20
-84.66509935350828
 30
0.0
 11
-37.30933240364607
 21
-84.73140044040828
 31
0.0
  0
LINE
  5
208
330
1F
100
AcDbEntity
  8
0
  6
DIVIDE
 62
     7
370
    13
100
AcDbLine
 10
-37.30933240364607
 20
-84.73140044040828
 30
0.0
 11
-36.34667268704607
 21
-85.00069958060828
 31
0.0
  0
LINE
  5
209
330
1F
100
AcDbEntity
  8
0
  6
DIVIDE
 62
     7
370
    13
100
AcDbLine
 10
-36.34667268704607
 20
-85.00069958060828
 30
0.0
 11
-35.20305326884608
 21
-85.25744845060828
 31
0.0
  0
LINE
  5
20A
330
1F
100
AcDbEntity
  8
0
  6
DIVIDE
 62
     7
370
    13
100
AcDbLine
 10
-35.20305326884608
 20
-85.25744845060828
 30
0.0
 11
-33.88783207844608
 21
-85.49954691800829
 31
0.0
  0
LINE
  5
20B
330
1F
100
AcDbEntity
  8
0
  6
DIVIDE
 62
     7
370
    13
100
AcDbLine
 10
-33.88783207844608
 20
-85.49954691800829
 30
0.0
 11
-32.41176775404608
 21
-85.72501359410829
 31
0.0
  0
LINE
  5
20C
330
1F
100
AcDbEntity
  8
0
  6
DIVIDE
 62
     7
370
    13
100
AcDbLine
 10
-32.41176775404608
 20
-85.72501359410829
 30
0.0
 11
-30.78693768684607
 21
-85.93200469290828
 31
0.0
  0
LINE
  5
20D
330
1F
100
AcDbEntity
  8
0
  6
DIVIDE
 62
     7
370
    13
100
AcDbLine
 10
-30.78693768684607
 20
-85.93200469290828
 30
0.0
 11
-29.02663930064608
 21
-86.11882520740829
 31
0.0
  0
LINE
  5
20E
330
1F
100
AcDbEntity
  8
0
  6
DIVIDE
 62
     7
370
    13
100
AcDbLine
 10
-29.02663930064608
 20
-86.11882520740829
 30
0.0
 11
-27.14527084244608
 21
-86.28394776860829
 31
0.0
  0
LINE
  5
20F
330
1F
100
AcDbEntity
  8
0
  6
DIVIDE
 62
     7
370
    13
100
AcDbLine
 10
-27.14527084244608
 20
-86.28394776860829
 30
0.0
 11
-25.15822707424607
 21
-86.42602102730828
 31
0.0
  0
LINE
  5
210
330
1F
100
AcDbEntity
  8
0
  6
DIVIDE
 62
     7
370
    13
100
AcDbLine
 10
-25.15822707424607
 20
-86.42602102730828
 30
0.0
 11
-23.08176516304607
 21
-86.54388269310829
 31
0.0
  0
LINE
  5
211
330
1F
100
AcDbEntity
  8
0
  6
DIVIDE
 62
     7
370
    13
100
AcDbLine
 10
-23.08176516304607
 20
-86.54388269310829
 30
0.0
 11
-20.93287988314606
 21
-86.63656791570828
 31
0.0
  0
LINE
  5
212
330
1F
100
AcDbEntity
  8
0
  6
DIVIDE
 62
     7
370
    13
100
AcDbLine
 10
-20.93287988314606
 20
-86.63656791570828
 30
0.0
 11
-18.72914342884607
 21
-86.70331859860829
 31
0.0
  0
LINE
  5
213
330
1F
100
AcDbEntity
  8
0
  6
DIVIDE
 62
     7
370
    13
100
AcDbLine
 10
-18.72914342884607
 20
-86.70331859860829
 30
0.0
 11
-16.48859365594606
 21
-86.74358898680829
 31
0.0
  0
LINE
  5
214
330
1F
100
AcDbEntity
  8
0
  6
DIVIDE
 62
     7
370
    13
100
AcDbLine
 10
-16.48859365594606
 20
-86.74358898680829
 30
0.0
 11
-14.22956271774606
 21
-86.75704892630829
 31
0.0
  0
LINE
  5
215
330
1F
100
AcDbEntity
  8
0
  6
DIVIDE
 62
     7
370
    13
100
AcDbLine
 10
-14.22956271774606
 20
-76.75704914980828
 30
0.0
 11
-16.48859365594606
 21
-76.77050908930829
 31
0.0
  0
LINE
  5
216
330
1F
100
AcDbEntity
  8
0
  6
DIVIDE
 62
     7
370
    13
100
AcDbLine
 10
-16.48859365594606
 20
-76.77050908930829
 30
0.0
 11
-18.72914342884607
 21
-76.81077947740829
 31
0.0
  0
LINE
  5
217
330
1F
100
AcDbEntity
  8
0
  6
DIVIDE
 62
     7
370
    13
100
AcDbLine
 10
-18.72914342884607
 20
-76.81077947740829
 30
0.0
 11
-20.93287988314606
 21
-76.87753016030828
 31
0.0
  0
LINE
  5
218
330
1F
100
AcDbEntity
  8
0
  6
DIVIDE
 62
     7
370
    13
100
AcDbLine
 10
-20.93287988314606
 20
-76.87753016030828
 30
0.0
 11
-23.08176516304607
 21
-76.97021538290828
 31
0.0
  0
LINE
  5
219
330
1F
100
AcDbEntity
  8
0
  6
DIVIDE
 62
     7
370
    13
100
AcDbLine
 10
-23.08176516304607
 20
-76.97021538290828
 30
0.0
 11
-25.15822707424607
 21
-77.08807704870829
 31
0.0
  0
LINE
  5
21A
330
1F
100
AcDbEntity
  8
0
  6
DIVIDE
 62
     7
370
    13
100
AcDbLine
 10
-25.15822707424607
 20
-77.08807704870829
 30
0.0
 11
-27.14527084244608
 21
-77.23015030750828
 31
0.0
  0
LINE
  5
21B
330
1F
100
AcDbEntity
  8
0
  6
DIVIDE
 62
     7
370
    13
100
AcDbLine
 10
-27.14527084244608
 20
-77.23015030750828
 30
0.0
 11
-29.02663930064608
 21
-77.39527286860829
 31
0.0
  0
LINE
  5
21C
330
1F
100
AcDbEntity
  8
0
  6
DIVIDE
 62
     7
370
    13
100
AcDbLine
 10
-29.02663930064608
 20
-77.39527286860829
 30
0.0
 11
-30.78693768684607
 21
-77.58209338310829
 31
0.0
  0
LINE
  5
21D
330
1F
100
AcDbEntity
  8
0
  6
DIVIDE
 62
     7
370
    13
100
AcDbLine
 10
-30.78693768684607
 20
-77.58209338310829
 30
0.0
 11
-32.41176775404608
 21
-77.78908448200829
 31
0.0
  0
LINE
  5
21E
330
1F
100
AcDbEntity
  8
0
  6
DIVIDE
 62
     7
370
    13
100
AcDbLine
 10
-32.41176775404608
 20
-77.78908448200829
 30
0.0
 11
-33.88783207844608
 21
-78.01455115800829
 31
0.0
  0
LINE
  5
21F
330
1F
100
AcDbEntity
  8
0
  6
DIVIDE
 62
     7
370
    13
100
AcDbLine
 10
-33.88783207844608
 20
-78.01455115800829
 30
0.0
 11
-35.20305326884608
 21
-78.25664962540829
 31
0.0
  0
LINE
  5
220
330
1F
100
AcDbEntity
  8
0
  6
DIVIDE
 62
     7
370
    13
100
AcDbLine
 10
-35.20305326884608
 20
-78.25664962540829
 30
0.0
 11
-36.34667268704607
 21
-78.51339849550828
 31
0.0
  0
LINE
  5
221
330
1F
100
AcDbEntity
  8
0
  6
DIVIDE
 62
     7
370
    13
100
AcDbLine
 10
-36.34667268704607
 20
-78.51339849550828
 30
0.0
 11
-37.30933240364607
 21
-78.78269763570829
 31
0.0
  0
LINE
  5
222
330
1F
100
AcDbEntity
  8
0
  6
DIVIDE
 62
     7
370
    13
100
AcDbLine
 10
-70.34956256604607
 20
23.7636098463917
 30
0.0
 11
-40.38295580754607
 21
23.7636098463917
 31
0.0
  0
ARC
  5
223
330
1F
100
AcDbEntity
  8
0
  6
DIVIDE
 62
     7
370
    13
100
AcDbCircle
 10
-40.38296170944608
 20
26.76361914069172
 30
0.0
 40
3.0000092943
100
AcDbArc
 50
270.0001127173998
 51
339.0749729751002
  0
LINE
  5
224
330
1F
100
AcDbEntity
  8
0
  6
DIVIDE
 62
     7
370
    13
100
AcDbLine
 10
-37.30933240364607
 20
26.3721586961917
 30
0.0
 11
-37.44848503474606
 21
26.03084387379171
 31
0.0
  0
LINE
  5
225
330
1F
100
AcDbEntity
  8
0
  6
DIVIDE
 62
     7
370
    13
100
AcDbLine
 10
-37.44848503474606
 20
26.03084387379171
 30
0.0
 11
-37.58080734614606
 21
25.69217773279171
 31
0.0
  0
LINE
  5
226
330
1F
100
AcDbEntity
  8
0
  6
DIVIDE
 62
     7
370
    13
100
AcDbLine
 10
-8.229562479346072
 20
68.46360983449172
 30
0.0
 11
-98.22956247934607
 21
68.46360983449172
 31
0.0
  0
LINE
  5
227
330
1F
100
AcDbEntity
  8
0
  6
DIVIDE
 62
     7
370
    13
100
AcDbLine
 10
-51.17956234824607
 20
68.46361028149171
 30
0.0
 11
-51.17956247934606
 21
68.7636098344917
 31
0.0
  0
LINE
  5
228
330
1F
100
AcDbEntity
  8
0
  6
DIVIDE
 62
     7
370
    13
100
AcDbLine
 10
-65.27956247934608
 20
68.7636098344917
 30
0.0
 11
-65.27956261044608
 21
68.46361028149171
 31
0.0
  0
LINE
  5
229
330
1F
100
AcDbEntity
  8
0
  6
DIVIDE
 62
     7
370
    13
100
AcDbLine
 10
-64.22956253154607
 20
54.96360899999171
 30
0.0
 11
-64.22956253154607
 21
53.7636110384917
 31
0.0
  0
LINE
  5
22A
330
1F
100
AcDbEntity
  8
0
  6
DIVIDE
 62
     7
370
    13
100
AcDbLine
 10
-52.22956242714608
 20
53.7636110384917
 30
0.0
 11
-52.22956242714608
 21
54.96360899999171
 31
0.0
  0
LINE
  5
22B
330
1F
100
AcDbEntity
  8
0
  6
DIVIDE
 62
     7
370
    13
100
AcDbLine
 10
-53.22956247934607
 20
74.2636098344917
 30
0.0
 11
-53.72956267304608
 21
74.76360982409172
 31
0.0
  0
LINE
  5
22C
330
1F
100
AcDbEntity
  8
0
  6
DIVIDE
 62
     7
370
    13
100
AcDbLine
 10
-62.72956228564607
 20
74.76360982409172
 30
0.0
 11
-63.22956247934607
 21
74.2636098344917
 31
0.0
  0
LINE
  5
22D
330
1F
100
AcDbEntity
  8
0
  6
DIVIDE
 62
     7
370
    13
100
AcDbLine
 10
-53.22956259114608
 20
69.7636099357917
 30
0.0
 11
-53.22956247934607
 21
74.2636098344917
 31
0.0
  0
LINE
  5
22E
330
1F
100
AcDbEntity
  8
0
  6
DIVIDE
 62
     7
370
    13
100
AcDbLine
 10
-63.22956247934607
 20
74.2636098344917
 30
0.0
 11
-63.22956236754607
 21
69.7636099357917
 31
0.0
  0
ARC
  5
22F
330
1F
100
AcDbEntity
  8
0
  6
DIVIDE
 62
     7
370
    13
100
AcDbCircle
 10
-70.34956506564606
 20
46.64126792679171
 30
0.0
 40
22.8776580804
100
AcDbArc
 50
180.0
 51
270.00000626
  0
LINE
  5
230
330
1F
100
AcDbEntity
  8
0
  6
DIVIDE
 62
     7
370
    13
100
AcDbLine
 10
-93.22722314604607
 20
53.7636110384917
 30
0.0
 11
-93.22722314604607
 21
46.64125831919172
 31
0.0
  0
ARC
  5
231
330
1F
100
AcDbEntity
  8
0
  6
DIVIDE
 62
     7
370
    13
100
AcDbCircle
 10
15.27043752065393
 20
52.86360983449173
 30
0.0
 40
1.0
100
AcDbArc
 50
0.0
 51
90.0
  0
LINE
  5
232
330
1F
100
AcDbEntity
  8
0
  6
DIVIDE
 62
     7
370
    13
100
AcDbLine
 10
16.27043752065393
 20
42.86360983449173
 30
0.0
 11
16.27043752065393
 21
52.86360983449173
 31
0.0
  0
ARC
  5
233
330
1F
100
AcDbEntity
  8
0
  6
DIVIDE
 62
     7
370
    13
100
AcDbCircle
 10
15.27043752065393
 20
42.86360983449173
 30
0.0
 40
1.0
100
AcDbArc
 50
270.0
 51
0.0
  0
LINE
  5
234
330
1F
100
AcDbEntity
  8
0
  6
DIVIDE
 62
     7
370
    13
100
AcDbLine
 10
8.57043752065394
 20
53.91360983449171
 30
0.0
 11
8.570435804053943
 21
53.86360900599171
 31
0.0
  0
LINE
  5
235
330
1F
100
AcDbEntity
  8
0
  6
DIVIDE
 62
     7
370
    13
100
AcDbLine
 10
14.57044051285393
 20
53.86360900599171
 30
0.0
 11
14.57043752065394
 21
53.91360983449171
 31
0.0
  0
LINE
  5
236
330
1F
100
AcDbEntity
  8
0
  6
DIVIDE
 62
     7
370
    13
100
AcDbLine
 10
-52.22956242714608
 20
68.76360977189172
 30
0.0
 11
-52.22956247934607
 21
69.7636098344917
 31
0.0
  0
LINE
  5
237
330
1F
100
AcDbEntity
  8
0
  6
DIVIDE
 62
     7
370
    13
100
AcDbLine
 10
-64.22956247934607
 20
69.7636098344917
 30
0.0
 11
-64.22956253154607
 21
68.76360977189172
 31
0.0
  0
LINE
  5
238
330
1F
100
AcDbEntity
  8
0
  6
DIVIDE
 62
     7
370
    13
100
AcDbLine
 10
-65.27956247934608
 20
68.7636098344917
 30
0.0
 11
-62.72956247934607
 21
68.7636098344917
 31
0.0
  0
LINE
  5
239
330
1F
100
AcDbEntity
  8
0
  6
DIVIDE
 62
     7
370
    13
100
AcDbLine
 10
-53.72956247934607
 20
68.7636098344917
 30
0.0
 11
-51.17956247934606
 21
68.7636098344917
 31
0.0
  0
LINE
  5
23A
330
1F
100
AcDbEntity
  8
0
  6
DIVIDE
 62
     7
370
    13
100
AcDbLine
 10
-40.72956247934607
 20
56.46360983449172
 30
0.0
 11
-40.72956247934607
 21
68.46360983449172
 31
0.0
  0
LINE
  5
23B
330
1F
100
AcDbEntity
  8
0
  6
DIVIDE
 62
     7
370
    13
100
AcDbLine
 10
-75.72956247934607
 20
56.46360983449172
 30
0.0
 11
-75.72956247934607
 21
68.46360983449172
 31
0.0
  0
ARC
  5
23C
330
1F
100
AcDbEntity
  8
0
  6
DIVIDE
 62
     7
370
    13
100
AcDbCircle
 10
-42.22956247934607
 20
56.46360983449172
 30
0.0
 40
1.5
100
AcDbArc
 50
270.0
 51
0.0
  0
LINE
  5
23D
330
1F
100
AcDbEntity
  8
0
  6
DIVIDE
 62
     7
370
    13
100
AcDbLine
 10
-42.22956247934607
 20
54.96360983449172
 30
0.0
 11
-74.22956247934607
 21
54.96360983449172
 31
0.0
  0
ARC
  5
23E
330
1F
100
AcDbEntity
  8
0
  6
DIVIDE
 62
     7
370
    13
100
AcDbCircle
 10
-74.22956247934607
 20
56.46360983449172
 30
0.0
 40
1.5
100
AcDbArc
 50
180.0
 51
270.0
  0
LINE
  5
23F
330
1F
100
AcDbEntity
  8
0
  6
DIVIDE
 62
     7
370
    13
100
AcDbLine
 10
-81.22956252404606
 20
48.76360835629173
 30
0.0
 11
-81.22956252404606
 21
53.7636110384917
 31
0.0
  0
LINE
  5
240
330
1F
100
AcDbEntity
  8
0
  6
DIVIDE
 62
     7
370
    13
100
AcDbLine
 10
-83.84084946224607
 20
48.76360835629173
 30
0.0
 11
-83.84084946224607
 21
53.7636110384917
 31
0.0
  0
LINE
  5
241
330
1F
100
AcDbEntity
  8
0
  6
DIVIDE
 62
     7
370
    13
100
AcDbLine
 10
-83.84084946224607
 20
53.7636110384917
 30
0.0
 11
-81.22956252404606
 21
53.7636110384917
 31
0.0
  0
LINE
  5
242
330
1F
100
AcDbEntity
  8
0
  6
DIVIDE
 62
     7
370
    13
100
AcDbLine
 10
-4.229562479346072
 20
53.7636098344917
 30
0.0
 11
-81.22956252404606
 21
53.7636110384917
 31
0.0
  0
LINE
  5
243
330
1F
100
AcDbEntity
  8
0
  6
DIVIDE
 62
     7
370
    13
100
AcDbLine
 10
-4.229562479346072
 20
41.7636098344917
 30
0.0
 11
-14.22956271774606
 21
41.76360907159172
 31
0.0
  0
LINE
  5
244
330
1F
100
AcDbEntity
  8
0
  6
DIVIDE
 62
     7
370
    13
100
AcDbLine
 10
-14.22956271774606
 20
41.76360907159172
 30
0.0
 11
-70.34956256604607
 21
41.76360907159172
 31
0.0
  0
LINE
  5
245
330
1F
100
AcDbEntity
  8
0
  6
DIVIDE
 62
     7
370
    13
100
AcDbLine
 10
-76.34956261824607
 20
41.76360907159172
 30
0.0
 11
-70.34956256604607
 21
41.76360907159172
 31
0.0
  0
LINE
  5
246
330
1F
100
AcDbEntity
  8
0
  6
DIVIDE
 62
     7
370
    13
100
AcDbLine
 10
-4.229562479346072
 20
41.86360983449173
 30
0.0
 11
-4.229562479346072
 21
41.7636098344917
 31
0.0
  0
ARC
  5
247
330
1F
100
AcDbEntity
  8
0
  6
DIVIDE
 62
     7
370
    13
100
AcDbCircle
 10
-76.19814302984608
 20
49.43418297719172
 30
0.0
 40
7.6720682957
100
AcDbArc
 50
185.0143172925999
 51
268.8691098213
  0
ARC
  5
248
330
1F
100
AcDbEntity
  8
0
  6
DIVIDE
 62
     7
370
    13
100
AcDbCircle
 10
-14.22956220954606
 20
16.76360848349172
 30
0.0
 40
25.0000005881
100
AcDbArc
 50
90.00000116479998
 51
157.3971031382
  0
LINE
  5
249
330
1F
100
AcDbEntity
  8
0
  6
DIVIDE
 62
     7
370
    13
100
AcDbLine
 10
-53.22956247934607
 20
74.2636098344917
 30
0.0
 11
-53.72956247934607
 21
74.2636098344917
 31
0.0
  0
LINE
  5
24A
330
1F
100
AcDbEntity
  8
0
  6
DIVIDE
 62
     7
370
    13
100
AcDbLine
 10
-62.72956247934607
 20
74.2636098344917
 30
0.0
 11
-63.22956247934607
 21
74.2636098344917
 31
0.0
  0
LINE
  5
24B
330
1F
100
AcDbEntity
  8
0
  6
DIVIDE
 62
     7
370
    13
100
AcDbLine
 10
-90.62197490344607
 20
53.7636110384917
 30
0.0
 11
-83.84084946224607
 21
53.7636110384917
 31
0.0
  0
LINE
  5
24C
330
1F
100
AcDbEntity
  8
0
  6
DIVIDE
 62
     7
370
    13
100
AcDbLine
 10
-93.22722314604607
 20
53.7636110384917
 30
0.0
 11
-90.62197490344607
 21
53.7636110384917
 31
0.0
  0
ARC
  5
24D
330
1F
100
AcDbEntity
  8
0
  6
DIVIDE
 62
     7
370
    13
100
AcDbCircle
 10
-2.729562479346072
 20
53.36360983449173
 30
0.0
 40
0.5
100
AcDbArc
 50
0.0
 51
90.0
  0
LINE
  5
24E
330
1F
100
AcDbEntity
  8
0
  6
DIVIDE
 62
     7
370
    13
100
AcDbLine
 10
-2.229562479346072
 20
53.36360983449173
 30
0.0
 11
-2.229562479346072
 21
52.86360983449173
 31
0.0
  0
LINE
  5
24F
330
1F
100
AcDbEntity
  8
0
  6
DIVIDE
 62
     7
370
    13
100
AcDbLine
 10
-2.229562479346072
 20
52.86360983449173
 30
0.0
 11
-2.229560750846076
 21
49.86360835029173
 31
0.0
  0
LINE
  5
250
330
1F
100
AcDbEntity
  8
0
  6
DIVIDE
 62
     7
370
    13
100
AcDbLine
 10
-4.229562479346072
 20
53.7636098344917
 30
0.0
 11
-4.229562479346072
 21
53.86360983449173
 31
0.0
  0
LINE
  5
251
330
1F
100
AcDbEntity
  8
0
  6
DIVIDE
 62
     7
370
    13
100
AcDbLine
 10
-4.229562479346072
 20
53.86360983449173
 30
0.0
 11
-2.729562479346072
 21
53.86360983449173
 31
0.0
  0
ARC
  5
252
330
1F
100
AcDbEntity
  8
0
  6
DIVIDE
 62
     7
370
    13
100
AcDbCircle
 10
11.97359475435394
 20
53.0988431424917
 30
0.0
 40
0.9889188697
100
AcDbArc
 50
346.2392409679005
 51
50.65434730390034
  0
LINE
  5
253
330
1F
100
AcDbEntity
  8
0
  6
DIVIDE
 62
     7
370
    13
100
AcDbLine
 10
7.770437520653928
 20
53.86360983449173
 30
0.0
 11
12.60056453955394
 21
53.86360983449173
 31
0.0
  0
LINE
  5
254
330
1F
100
AcDbEntity
  8
0
  6
DIVIDE
 62
     7
370
    13
100
AcDbLine
 10
12.60056453955394
 20
53.86360983449173
 30
0.0
 11
15.27043752065393
 21
53.86360983449173
 31
0.0
  0
LINE
  5
255
330
1F
100
AcDbEntity
  8
0
  6
DIVIDE
 62
     7
370
    13
100
AcDbLine
 10
12.93412910095392
 20
42.86360906559172
 30
0.0
 11
12.93412910095392
 21
52.86361070469171
 31
0.0
  0
LINE
  5
256
330
1F
100
AcDbEntity
  8
0
  6
DIVIDE
 62
     7
370
    13
100
AcDbLine
 10
-4.229562479346072
 20
42.86360983449173
 30
0.0
 11
-4.229560938576205
 21
53.86360983456323
 31
0.0
  0
LINE
  5
257
330
1F
100
AcDbEntity
  8
0
  6
DIVIDE
 62
     7
370
    13
100
AcDbLine
 10
-2.729561764046082
 20
49.86360835029173
 30
0.0
 11
7.770437163053941
 21
49.86360835029173
 31
0.0
  0
LINE
  5
258
330
1F
100
AcDbEntity
  8
0
  6
DIVIDE
 62
     7
370
    13
100
AcDbLine
 10
7.270437520653928
 20
52.86360983449173
 30
0.0
 11
7.270437520653928
 21
53.36360983449173
 31
0.0
  0
ARC
  5
259
330
1F
100
AcDbEntity
  8
0
  6
DIVIDE
 62
     7
370
    13
100
AcDbCircle
 10
7.770437520653928
 20
53.36360983449173
 30
0.0
 40
0.5
100
AcDbArc
 50
90.0
 51
180.0
  0
LINE
  5
25A
330
1F
100
AcDbEntity
  8
0
  6
DIVIDE
 62
     7
370
    13
100
AcDbLine
 10
7.27043614975392
 20
49.86360835029173
 30
0.0
 11
7.270437520653928
 21
52.86360983449173
 31
0.0
  0
ARC
  5
25B
330
1F
100
AcDbEntity
  8
0
  6
DIVIDE
 62
     7
370
    13
100
AcDbCircle
 10
12.12109369995392
 20
42.5791764281917
 30
0.0
 40
0.8613527086
100
AcDbArc
 50
303.8245119097005
 51
19.28189981860004
  0
LINE
  5
25C
330
1F
100
AcDbEntity
  8
0
  6
DIVIDE
 62
     7
370
    13
100
AcDbLine
 10
12.60056453955394
 20
41.86360983449173
 30
0.0
 11
-4.229562479346072
 21
41.86360983449173
 31
0.0
  0
LINE
  5
25D
330
1F
100
AcDbEntity
  8
0
  6
DIVIDE
 62
     7
370
    13
100
AcDbLine
 10
-4.229562479346072
 20
41.8644368601917
 30
0.0
 11
-4.229562479346072
 21
42.86360983449173
 31
0.0
  0
LINE
  5
25E
330
1F
100
AcDbEntity
  8
0
  6
DIVIDE
 62
     7
370
    13
100
AcDbLine
 10
15.27043752065393
 20
41.86360983449173
 30
0.0
 11
12.60056453955394
 21
41.86360983449173
 31
0.0
  0
LINE
  5
25F
330
1F
100
AcDbEntity
  8
0
  6
DIVIDE
 62
     7
370
    13
100
AcDbLine
 10
8.57043752065394
 20
53.91360983449171
 30
0.0
 11
14.57043752065394
 21
53.91360983449171
 31
0.0
  0
LINE
  5
260
330
1F
100
AcDbEntity
  8
0
  6
DIVIDE
 62
     7
370
    13
100
AcDbLine
 10
-62.84830322114607
 20
69.7636098344917
 30
0.0
 11
-62.72956247934607
 21
69.7636098344917
 31
0.0
  0
LINE
  5
261
330
1F
100
AcDbEntity
  8
0
  6
DIVIDE
 62
     7
370
    13
100
AcDbLine
 10
-53.72956247934607
 20
69.7636098344917
 30
0.0
 11
-53.61082173754608
 21
69.7636098344917
 31
0.0
  0
LINE
  5
262
330
1F
100
AcDbEntity
  8
0
  6
DIVIDE
 62
     7
370
    13
100
AcDbLine
 10
-53.61082173754608
 20
69.7636098344917
 30
0.0
 11
-52.22956247934607
 21
69.7636098344917
 31
0.0
  0
LINE
  5
263
330
1F
100
AcDbEntity
  8
0
  6
DIVIDE
 62
     7
370
    13
100
AcDbLine
 10
-64.22956247934607
 20
69.7636098344917
 30
0.0
 11
-62.84830322114607
 21
69.7636098344917
 31
0.0
  0
LINE
  5
264
330
1F
100
AcDbEntity
  8
0
  6
DIVIDE
 62
     7
370
    13
100
AcDbLine
 10
-12.72956247934607
 20
67.46360983449172
 30
0.0
 11
-7.229562479346072
 21
67.46360983449172
 31
0.0
  0
ARC
  5
265
330
1F
100
AcDbEntity
  8
0
  6
DIVIDE
 62
     7
370
    13
100
AcDbCircle
 10
-12.72956247934607
 20
67.96360983449172
 30
0.0
 40
0.5
100
AcDbArc
 50
180.0
 51
270.0
  0
ARC
  5
266
330
1F
100
AcDbEntity
  8
0
  6
DIVIDE
 62
     7
370
    13
100
AcDbCircle
 10
-12.72956247934607
 20
67.96360983449172
 30
0.0
 40
0.5
100
AcDbArc
 50
90.0
 51
180.0
  0
ARC
  5
267
330
1F
100
AcDbEntity
  8
0
  6
DIVIDE
 62
     7
370
    13
100
AcDbCircle
 10
-7.92956247934606
 20
71.16360983449171
 30
0.0
 40
0.3
100
AcDbArc
 50
90.0
 51
180.0
  0
LINE
  5
268
330
1F
100
AcDbEntity
  8
0
  6
DIVIDE
 62
     7
370
    13
100
AcDbLine
 10
-7.529562479346083
 20
71.46360983449172
 30
0.0
 11
-7.92956247934606
 21
71.46360983449172
 31
0.0
  0
ARC
  5
269
330
1F
100
AcDbEntity
  8
0
  6
DIVIDE
 62
     7
370
    13
100
AcDbCircle
 10
-7.529562479346083
 20
71.16360983449171
 30
0.0
 40
0.3
100
AcDbArc
 50
0.0
 51
90.0
  0
LINE
  5
26A
330
1F
100
AcDbEntity
  8
0
  6
DIVIDE
 62
     7
370
    13
100
AcDbLine
 10
-7.229562479346072
 20
70.25438923849173
 30
0.0
 11
-7.229562479346072
 21
71.16360983449171
 31
0.0
  0
ARC
  5
26B
330
1F
100
AcDbEntity
  8
0
  6
DIVIDE
 62
     7
370
    13
100
AcDbCircle
 10
-6.729562479346072
 20
70.25438923849173
 30
0.0
 40
0.5
100
AcDbArc
 50
180.0
 51
320.2886647600005
  0
LINE
  5
26C
330
1F
100
AcDbEntity
  8
0
  6
DIVIDE
 62
     7
370
    13
100
AcDbLine
 10
-8.229562479346072
 20
68.46360983449172
 30
0.0
 11
-8.229562479346072
 21
108.4636098344917
 31
0.0
  0
LINE
  5
26D
330
1F
100
AcDbEntity
  8
0
  6
DIVIDE
 62
     7
370
    13
100
AcDbLine
 10
-8.229562479346072
 20
108.4636098344917
 30
0.0
 11
-98.22956247934607
 21
108.4636098344917
 31
0.0
  0
LINE
  5
26E
330
1F
100
AcDbEntity
  8
0
  6
DIVIDE
 62
     7
370
    13
100
AcDbLine
 10
-53.72956247934607
 20
97.16360983449171
 30
0.0
 11
-54.72956247934607
 21
98.16360983449171
 31
0.0
  0
LINE
  5
26F
330
1F
100
AcDbEntity
  8
0
  6
DIVIDE
 62
     7
370
    13
100
AcDbLine
 10
-61.72956247934607
 20
98.16360983449171
 30
0.0
 11
-62.72956247934607
 21
97.16360983449171
 31
0.0
  0
LINE
  5
270
330
1F
100
AcDbEntity
  8
0
  6
DIVIDE
 62
     7
370
    13
100
AcDbLine
 10
-53.72956267304608
 20
68.46361028149171
 30
0.0
 11
-53.72956247934607
 21
97.16360983449171
 31
0.0
  0
LINE
  5
271
330
1F
100
AcDbEntity
  8
0
  6
DIVIDE
 62
     7
370
    13
100
AcDbLine
 10
-62.72956247934607
 20
97.16360983449171
 30
0.0
 11
-62.72956228564607
 21
68.46361028149171
 31
0.0
  0
LINE
  5
272
330
1F
100
AcDbEntity
  8
0
  6
DIVIDE
 62
     7
370
    13
100
AcDbLine
 10
-52.47956246814607
 20
113.7636096973917
 30
0.0
 11
-52.47956247934607
 21
114.1636098344917
 31
0.0
  0
LINE
  5
273
330
1F
100
AcDbEntity
  8
0
  6
DIVIDE
 62
     7
370
    13
100
AcDbLine
 10
-63.97956247934607
 20
114.1636098344917
 30
0.0
 11
-63.97956249054607
 21
113.7636096973917
 31
0.0
  0
LINE
  5
274
330
1F
100
AcDbEntity
  8
0
  6
DIVIDE
 62
     7
370
    13
100
AcDbLine
 10
-52.47956247934607
 20
114.1636098344917
 30
0.0
 11
-52.97956247934607
 21
114.6636098344917
 31
0.0
  0
LINE
  5
275
330
1F
100
AcDbEntity
  8
0
  6
DIVIDE
 62
     7
370
    13
100
AcDbLine
 10
-63.47956247934607
 20
114.6636098344917
 30
0.0
 11
-63.97956247934607
 21
114.1636098344917
 31
0.0
  0
LINE
  5
276
330
1F
100
AcDbEntity
  8
0
  6
DIVIDE
 62
     7
370
    13
100
AcDbLine
 10
-53.22956259114608
 20
86.16360978349171
 30
0.0
 11
-53.22956259114608
 21
108.4636093874917
 31
0.0
  0
LINE
  5
277
330
1F
100
AcDbEntity
  8
0
  6
DIVIDE
 62
     7
370
    13
100
AcDbLine
 10
-63.22956236754607
 20
108.4636093874917
 30
0.0
 11
-63.22956236754607
 21
86.16360978349171
 31
0.0
  0
LINE
  5
278
330
1F
100
AcDbEntity
  8
0
  6
DIVIDE
 62
     7
370
    13
100
AcDbLine
 10
-63.22956236754607
 20
86.16360978349171
 30
0.0
 11
-62.72956228564607
 21
85.66360993429173
 31
0.0
  0
LINE
  5
279
330
1F
100
AcDbEntity
  8
0
  6
DIVIDE
 62
     7
370
    13
100
AcDbLine
 10
-53.72956267304608
 20
85.66360993429173
 30
0.0
 11
-53.22956259114608
 21
86.16360978349171
 31
0.0
  0
LINE
  5
27A
330
1F
100
AcDbEntity
  8
0
  6
DIVIDE
 62
     7
370
    13
100
AcDbLine
 10
-54.72956247934607
 20
98.16360983449171
 30
0.0
 11
-61.72956247934607
 21
98.16360983449171
 31
0.0
  0
LINE
  5
27B
330
1F
100
AcDbEntity
  8
0
  6
DIVIDE
 62
     7
370
    13
100
AcDbLine
 10
-53.72956247934607
 20
97.16360983449171
 30
0.0
 11
-62.72956247934607
 21
97.16360983449171
 31
0.0
  0
LINE
  5
27C
330
1F
100
AcDbEntity
  8
0
  6
DIVIDE
 62
     7
370
    13
100
AcDbLine
 10
-59.22956247934607
 20
114.1636098344917
 30
0.0
 11
-63.97956247934607
 21
114.1636098344917
 31
0.0
  0
LINE
  5
27D
330
1F
100
AcDbEntity
  8
0
  6
DIVIDE
 62
     7
370
    13
100
AcDbLine
 10
-59.22956252684608
 20
113.7636096973917
 30
0.0
 11
-59.22956247934607
 21
114.1636098344917
 31
0.0
  0
LINE
  5
27E
330
1F
100
AcDbEntity
  8
0
  6
DIVIDE
 62
     7
370
    13
100
AcDbLine
 10
-57.22956243184606
 20
113.7636096973917
 30
0.0
 11
-57.22956247934607
 21
114.1636098344917
 31
0.0
  0
LINE
  5
27F
330
1F
100
AcDbEntity
  8
0
  6
DIVIDE
 62
     7
370
    13
100
AcDbLine
 10
-52.47956247934607
 20
114.1636098344917
 30
0.0
 11
-57.22956247934607
 21
114.1636098344917
 31
0.0
  0
LINE
  5
280
330
1F
100
AcDbEntity
  8
0
  6
DIVIDE
 62
     7
370
    13
100
AcDbLine
 10
-52.97956247934607
 20
114.6636098344917
 30
0.0
 11
-57.22956247934607
 21
114.6636098344917
 31
0.0
  0
LINE
  5
281
330
1F
100
AcDbEntity
  8
0
  6
DIVIDE
 62
     7
370
    13
100
AcDbLine
 10
-57.22956247934607
 20
114.1636098344917
 30
0.0
 11
-57.22956247934607
 21
114.6636098344917
 31
0.0
  0
LINE
  5
282
330
1F
100
AcDbEntity
  8
0
  6
DIVIDE
 62
     7
370
    13
100
AcDbLine
 10
-59.22956247934607
 20
114.6636098344917
 30
0.0
 11
-63.47956247934607
 21
114.6636098344917
 31
0.0
  0
LINE
  5
283
330
1F
100
AcDbEntity
  8
0
  6
DIVIDE
 62
     7
370
    13
100
AcDbLine
 10
-59.22956247934607
 20
114.1636098344917
 30
0.0
 11
-59.22956247934607
 21
114.6636098344917
 31
0.0
  0
ARC
  5
284
330
1F
100
AcDbEntity
  8
0
  6
DIVIDE
 62
     7
370
    13
100
AcDbCircle
 10
-73.72956247934607
 20
111.7636098344917
 30
0.0
 40
2.0
100
AcDbArc
 50
90.0
 51
180.0
  0
LINE
  5
285
330
1F
100
AcDbEntity
  8
0
  6
DIVIDE
 62
     7
370
    13
100
AcDbLine
 10
-73.72956247934607
 20
113.7636098344917
 30
0.0
 11
-42.72956247934607
 21
113.7636098344917
 31
0.0
  0
ARC
  5
286
330
1F
100
AcDbEntity
  8
0
  6
DIVIDE
 62
     7
370
    13
100
AcDbCircle
 10
-42.72956247934607
 20
111.7636098344917
 30
0.0
 40
2.0
100
AcDbArc
 50
0.0
 51
90.0
  0
LINE
  5
287
330
1F
100
AcDbEntity
  8
0
  6
DIVIDE
 62
     7
370
    13
100
AcDbLine
 10
-61.72956247934607
 20
110.3636098344917
 30
0.0
 11
-61.72956247934607
 21
108.4636098344917
 31
0.0
  0
LINE
  5
288
330
1F
100
AcDbEntity
  8
0
  6
DIVIDE
 62
     7
370
    13
100
AcDbLine
 10
-75.72956247934607
 20
111.7636098344917
 30
0.0
 11
-75.72956247934607
 21
108.4636098344917
 31
0.0
  0
LINE
  5
289
330
1F
100
AcDbEntity
  8
0
  6
DIVIDE
 62
     7
370
    13
100
AcDbLine
 10
-40.72956247934607
 20
111.7636098344917
 30
0.0
 11
-40.72956247934607
 21
108.4636098344917
 31
0.0
  0
LINE
  5
28A
330
1F
100
AcDbEntity
  8
0
  6
DIVIDE
 62
     7
370
    13
100
AcDbLine
 10
-54.72956247934607
 20
110.3636098344917
 30
0.0
 11
-54.72956247934607
 21
108.4636098344917
 31
0.0
  0
LINE
  5
28B
330
1F
100
AcDbEntity
  8
0
  6
DIVIDE
 62
     7
370
    13
100
AcDbLine
 10
-61.72956247934607
 20
110.3636098344917
 30
0.0
 11
-54.72956247934607
 21
110.3636098344917
 31
0.0
  0
ARC
  5
28C
330
1F
100
AcDbEntity
  8
0
  6
DIVIDE
 62
     7
370
    13
100
AcDbCircle
 10
-12.72956247934607
 20
108.9636098344917
 30
0.0
 40
0.5
100
AcDbArc
 50
180.0
 51
270.0
  0
ARC
  5
28D
330
1F
100
AcDbEntity
  8
0
  6
DIVIDE
 62
     7
370
    13
100
AcDbCircle
 10
0.3289057273539413
 20
93.96360983449172
 30
0.0
 40
0.5
100
AcDbArc
 50
270.0
 51
10.74513865979895
  0
ARC
  5
28E
330
1F
100
AcDbEntity
  8
0
  6
DIVIDE
 62
     7
370
    13
100
AcDbCircle
 10
0.3289057273539413
 20
93.96360983449172
 30
0.0
 40
0.5
100
AcDbArc
 50
190.7451386599012
 51
270.000000000101
  0
ARC
  5
28F
330
1F
100
AcDbEntity
  8
0
  6
DIVIDE
 62
     7
370
    13
100
AcDbCircle
 10
-28.65384776494608
 20
88.46360983449172
 30
0.0
 40
29.0
100
AcDbArc
 50
10.7451386598
 51
13.96796267470002
  0
LINE
  5
290
330
1F
100
AcDbEntity
  8
0
  6
DIVIDE
 62
     7
370
    13
100
AcDbLine
 10
-2.729562479346072
 20
95.46360983449172
 30
0.0
 11
-0.511353206046067
 21
95.46360983449172
 31
0.0
  0
ARC
  5
291
330
1F
100
AcDbEntity
  8
0
  6
DIVIDE
 62
     7
370
    13
100
AcDbCircle
 10
-2.729562479346072
 20
94.96360983449172
 30
0.0
 40
0.5
100
AcDbArc
 50
90.0
 51
180.0
  0
LINE
  5
292
330
1F
100
AcDbEntity
  8
0
  6
DIVIDE
 62
     7
370
    13
100
AcDbLine
 10
-3.229562479346072
 20
92.7636098344917
 30
0.0
 11
-3.229562479346072
 21
94.96360983449172
 31
0.0
  0
ARC
  5
293
330
1F
100
AcDbEntity
  8
0
  6
DIVIDE
 62
     7
370
    13
100
AcDbCircle
 10
-3.529562479346083
 20
92.7636098344917
 30
0.0
 40
0.3
100
AcDbArc
 50
270.0
 51
0.0
  0
LINE
  5
294
330
1F
100
AcDbEntity
  8
0
  6
DIVIDE
 62
     7
370
    13
100
AcDbLine
 10
-3.92956247934606
 20
92.46360983449172
 30
0.0
 11
-3.529562479346083
 21
92.46360983449172
 31
0.0
  0
ARC
  5
295
330
1F
100
AcDbEntity
  8
0
  6
DIVIDE
 62
     7
370
    13
100
AcDbCircle
 10
-3.92956247934606
 20
92.7636098344917
 30
0.0
 40
0.3
100
AcDbArc
 50
180.0
 51
270.0
  0
LINE
  5
296
330
1F
100
AcDbEntity
  8
0
  6
DIVIDE
 62
     7
370
    13
100
AcDbLine
 10
-4.229562479346072
 20
94.96360983449172
 30
0.0
 11
-4.229562479346072
 21
92.7636098344917
 31
0.0
  0
ARC
  5
297
330
1F
100
AcDbEntity
  8
0
  6
DIVIDE
 62
     7
370
    13
100
AcDbCircle
 10
-4.729562479346072
 20
94.96360983449172
 30
0.0
 40
0.5
100
AcDbArc
 50
0.0
 51
90.0
  0
LINE
  5
298
330
1F
100
AcDbEntity
  8
0
  6
DIVIDE
 62
     7
370
    13
100
AcDbLine
 10
-6.229562479346072
 20
95.46360983449172
 30
0.0
 11
-4.729562479346072
 21
95.46360983449172
 31
0.0
  0
ARC
  5
299
330
1F
100
AcDbEntity
  8
0
  6
DIVIDE
 62
     7
370
    13
100
AcDbCircle
 10
-6.229562479346072
 20
94.96360983449172
 30
0.0
 40
0.5
100
AcDbArc
 50
90.0
 51
180.0
  0
LINE
  5
29A
330
1F
100
AcDbEntity
  8
0
  6
DIVIDE
 62
     7
370
    13
100
AcDbLine
 10
-6.729562747546083
 20
88.66360982939172
 30
0.0
 11
-6.729562479346072
 21
94.96360983449172
 31
0.0
  0
LINE
  5
29B
330
1F
100
AcDbEntity
  8
0
  6
DIVIDE
 62
     7
370
    13
100
AcDbLine
 10
-6.929562407846078
 20
88.46360983449172
 30
0.0
 11
-6.729562747546083
 21
88.66360982939172
 31
0.0
  0
LINE
  5
29C
330
1F
100
AcDbEntity
  8
0
  6
DIVIDE
 62
     7
370
    13
100
AcDbLine
 10
-6.729562747546083
 20
88.26360983959172
 30
0.0
 11
-6.929562407846078
 21
88.46360983449172
 31
0.0
  0
LINE
  5
29D
330
1F
100
AcDbEntity
  8
0
  6
DIVIDE
 62
     7
370
    13
100
AcDbLine
 10
-6.729562479346072
 20
81.96360983449172
 30
0.0
 11
-6.729562747546083
 21
88.26360983959172
 31
0.0
  0
ARC
  5
29E
330
1F
100
AcDbEntity
  8
0
  6
DIVIDE
 62
     7
370
    13
100
AcDbCircle
 10
-6.229562479346072
 20
81.96360983449172
 30
0.0
 40
0.5
100
AcDbArc
 50
180.0
 51
270.0
  0
LINE
  5
29F
330
1F
100
AcDbEntity
  8
0
  6
DIVIDE
 62
     7
370
    13
100
AcDbLine
 10
-4.729562479346072
 20
81.46360983449172
 30
0.0
 11
-6.229562479346072
 21
81.46360983449172
 31
0.0
  0
ARC
  5
2A0
330
1F
100
AcDbEntity
  8
0
  6
DIVIDE
 62
     7
370
    13
100
AcDbCircle
 10
-4.729562479346072
 20
81.96360983449172
 30
0.0
 40
0.5
100
AcDbArc
 50
270.0
 51
0.0
  0
LINE
  5
2A1
330
1F
100
AcDbEntity
  8
0
  6
DIVIDE
 62
     7
370
    13
100
AcDbLine
 10
-4.229562479346072
 20
84.16360983449171
 30
0.0
 11
-4.229562479346072
 21
81.96360983449172
 31
0.0
  0
ARC
  5
2A2
330
1F
100
AcDbEntity
  8
0
  6
DIVIDE
 62
     7
370
    13
100
AcDbCircle
 10
-3.92956247934606
 20
84.16360983449171
 30
0.0
 40
0.3
100
AcDbArc
 50
90.0
 51
180.0
  0
LINE
  5
2A3
330
1F
100
AcDbEntity
  8
0
  6
DIVIDE
 62
     7
370
    13
100
AcDbLine
 10
-3.529562479346083
 20
84.46360983449172
 30
0.0
 11
-3.92956247934606
 21
84.46360983449172
 31
0.0
  0
ARC
  5
2A4
330
1F
100
AcDbEntity
  8
0
  6
DIVIDE
 62
     7
370
    13
100
AcDbCircle
 10
-3.529562479346083
 20
84.16360983449171
 30
0.0
 40
0.3
100
AcDbArc
 50
0.0
 51
90.0
  0
LINE
  5
2A5
330
1F
100
AcDbEntity
  8
0
  6
DIVIDE
 62
     7
370
    13
100
AcDbLine
 10
-3.229562479346072
 20
81.96360983449172
 30
0.0
 11
-3.229562479346072
 21
84.16360983449171
 31
0.0
  0
ARC
  5
2A6
330
1F
100
AcDbEntity
  8
0
  6
DIVIDE
 62
     7
370
    13
100
AcDbCircle
 10
-2.729562479346072
 20
81.96360983449172
 30
0.0
 40
0.5
100
AcDbArc
 50
180.0
 51
270.0
  0
LINE
  5
2A7
330
1F
100
AcDbEntity
  8
0
  6
DIVIDE
 62
     7
370
    13
100
AcDbLine
 10
-0.511353206046067
 20
81.46360983449172
 30
0.0
 11
-2.729562479346072
 21
81.46360983449172
 31
0.0
  0
ARC
  5
2A8
330
1F
100
AcDbEntity
  8
0
  6
DIVIDE
 62
     7
370
    13
100
AcDbCircle
 10
-28.65384776494608
 20
88.46360983449172
 30
0.0
 40
29.0
100
AcDbArc
 50
346.0320373253
 51
349.2548613402
  0
ARC
  5
2A9
330
1F
100
AcDbEntity
  8
0
  6
DIVIDE
 62
     7
370
    13
100
AcDbCircle
 10
0.3289057273539413
 20
82.96360983449172
 30
0.0
 40
0.5
100
AcDbArc
 50
89.99999999989905
 51
169.254861340201
  0
ARC
  5
2AA
330
1F
100
AcDbEntity
  8
0
  6
DIVIDE
 62
     7
370
    13
100
AcDbCircle
 10
0.3289057273539413
 20
82.96360983449172
 30
0.0
 40
0.5
100
AcDbArc
 50
349.254861340201
 51
90.0
  0
ARC
  5
2AB
330
1F
100
AcDbEntity
  8
0
  6
DIVIDE
 62
     7
370
    13
100
AcDbCircle
 10
-28.65384776494608
 20
88.46360983449172
 30
0.0
 40
30.0
100
AcDbArc
 50
315.5729959992
 51
349.2548613402
  0
ARC
  5
2AC
330
1F
100
AcDbEntity
  8
0
  6
DIVIDE
 62
     7
370
    13
100
AcDbCircle
 10
-28.65384776494608
 20
88.46360983449172
 30
0.0
 40
29.0
100
AcDbArc
 50
320.2886647600999
 51
343.9866055761
  0
LINE
  5
2AD
330
1F
100
AcDbEntity
  8
0
  6
DIVIDE
 62
     7
370
    13
100
AcDbLine
 10
-8.229562062146073
 20
80.4636094544917
 30
0.0
 11
-0.7791280354460639
 21
80.46360983449172
 31
0.0
  0
LINE
  5
2AE
330
1F
100
AcDbEntity
  8
0
  6
DIVIDE
 62
     7
370
    13
100
AcDbLine
 10
-0.7791280354460639
 20
96.46360983449172
 30
0.0
 11
-8.229562062146073
 21
96.46361021449174
 31
0.0
  0
ARC
  5
2AF
330
1F
100
AcDbEntity
  8
0
  6
DIVIDE
 62
     7
370
    13
100
AcDbCircle
 10
-28.65384776494608
 20
88.46360983449172
 30
0.0
 40
29.0
100
AcDbArc
 50
16.01339442390002
 51
39.71133524
  0
ARC
  5
2B0
330
1F
100
AcDbEntity
  8
0
  6
DIVIDE
 62
     7
370
    13
100
AcDbCircle
 10
-6.729562479346072
 20
106.6728304304917
 30
0.0
 40
0.5
100
AcDbArc
 50
39.71133523999952
 51
180.0
  0
LINE
  5
2B1
330
1F
100
AcDbEntity
  8
0
  6
DIVIDE
 62
     7
370
    13
100
AcDbLine
 10
-7.229562479346072
 20
105.7636098344917
 30
0.0
 11
-7.229562479346072
 21
106.6728304304917
 31
0.0
  0
ARC
  5
2B2
330
1F
100
AcDbEntity
  8
0
  6
DIVIDE
 62
     7
370
    13
100
AcDbCircle
 10
-7.529562479346083
 20
105.7636098344917
 30
0.0
 40
0.3
100
AcDbArc
 50
270.0
 51
0.0
  0
LINE
  5
2B3
330
1F
100
AcDbEntity
  8
0
  6
DIVIDE
 62
     7
370
    13
100
AcDbLine
 10
-7.92956247934606
 20
105.4636098344917
 30
0.0
 11
-7.529562479346083
 21
105.4636098344917
 31
0.0
  0
ARC
  5
2B4
330
1F
100
AcDbEntity
  8
0
  6
DIVIDE
 62
     7
370
    13
100
AcDbCircle
 10
-7.92956247934606
 20
105.7636098344917
 30
0.0
 40
0.3
100
AcDbArc
 50
180.0
 51
270.0
  0
ARC
  5
2B5
330
1F
100
AcDbEntity
  8
0
  6
DIVIDE
 62
     7
370
    13
100
AcDbCircle
 10
-28.65384776494608
 20
88.46360983449172
 30
0.0
 40
30.0
100
AcDbArc
 50
10.74513865980001
 51
44.42700400080003
  0
LINE
  5
2B6
330
1F
100
AcDbEntity
  8
0
  6
DIVIDE
 62
     7
370
    13
100
AcDbLine
 10
-7.229562479346072
 20
109.4636098344917
 30
0.0
 11
-12.72956247934607
 21
109.4636098344917
 31
0.0
  0
ARC
  5
2B7
330
1F
100
AcDbEntity
  8
0
  6
DIVIDE
 62
     7
370
    13
100
AcDbCircle
 10
-12.72956247934607
 20
108.9636098344917
 30
0.0
 40
0.5
100
AcDbArc
 50
90.0
 51
180.0
  0
ARC
  5
2B8
330
1F
100
AcDbEntity
  8
0
  6
DIVIDE
 62
     7
370
    13
100
AcDbCircle
 10
1.92047146815392
 20
91.04135336099172
 30
0.0
 40
0.75
100
AcDbArc
 50
22.1568165567993
 51
90.0
  0
LINE
  5
2B9
330
1F
100
AcDbEntity
  8
0
  6
DIVIDE
 62
     7
370
    13
100
AcDbLine
 10
1.92047146815392
 20
91.79135336099172
 30
0.0
 11
1.45892387945392
 21
91.79135336099172
 31
0.0
  0
ARC
  5
2BA
330
1F
100
AcDbEntity
  8
0
  6
DIVIDE
 62
     7
370
    13
100
AcDbCircle
 10
1.45892387945392
 20
91.04135336099172
 30
0.0
 40
0.75
100
AcDbArc
 50
90.0
 51
180.0
  0
LINE
  5
2BB
330
1F
100
AcDbEntity
  8
0
  6
DIVIDE
 62
     7
370
    13
100
AcDbLine
 10
0.7089238794539199
 20
91.04135336099172
 30
0.0
 11
0.7089238794539199
 21
85.54135336099172
 31
0.0
  0
ARC
  5
2BC
330
1F
100
AcDbEntity
  8
0
  6
DIVIDE
 62
     7
370
    13
100
AcDbCircle
 10
1.45892387945392
 20
85.54135336099172
 30
0.0
 40
0.75
100
AcDbArc
 50
180.0
 51
270.0
  0
LINE
  5
2BD
330
1F
100
AcDbEntity
  8
0
  6
DIVIDE
 62
     7
370
    13
100
AcDbLine
 10
1.45892387945392
 20
84.79135336099172
 30
0.0
 11
1.92047146815392
 21
84.79135336099172
 31
0.0
  0
ARC
  5
2BE
330
1F
100
AcDbEntity
  8
0
  6
DIVIDE
 62
     7
370
    13
100
AcDbCircle
 10
1.92047146815392
 20
85.54135336099172
 30
0.0
 40
0.75
100
AcDbArc
 50
270.0
 51
337.8431834432007
  0
ARC
  5
2BF
330
1F
100
AcDbEntity
  8
0
  6
DIVIDE
 62
     7
370
    13
100
AcDbCircle
 10
-4.83274278714606
 20
88.29135336099172
 30
0.0
 40
8.0416666667
100
AcDbArc
 50
337.8431834432
 51
22.15681655679999
  0
LINE
  5
2C0
330
1F
100
AcDbEntity
  8
0
  6
DIVIDE
 62
     7
370
    13
100
AcDbLine
 10
-5.291075426446071
 20
85.79135339829172
 30
0.0
 11
-5.29107612054608
 21
84.79135336099172
 31
0.0
  0
LINE
  5
2C1
330
1F
100
AcDbEntity
  8
0
  6
DIVIDE
 62
     7
370
    13
100
AcDbLine
 10
-2.076790406246062
 20
84.8330385134917
 30
0.0
 11
-5.291075426446071
 21
85.79135339829172
 31
0.0
  0
ARC
  5
2C2
330
1F
100
AcDbEntity
  8
0
  6
DIVIDE
 62
     7
370
    13
100
AcDbCircle
 10
-1.79107612054608
 20
85.79135336099172
 30
0.0
 40
1.0
100
AcDbArc
 50
253.3984504010007
 51
0.0
  0
LINE
  5
2C3
330
1F
100
AcDbEntity
  8
0
  6
DIVIDE
 62
     7
370
    13
100
AcDbLine
 10
-0.7910761205460801
 20
90.79135336099172
 30
0.0
 11
-0.7910761205460801
 21
85.79135336099172
 31
0.0
  0
ARC
  5
2C4
330
1F
100
AcDbEntity
  8
0
  6
DIVIDE
 62
     7
370
    13
100
AcDbCircle
 10
-1.79107612054608
 20
90.79135336099172
 30
0.0
 40
1.0
100
AcDbArc
 50
0.0
 51
106.6015495989993
  0
LINE
  5
2C5
330
1F
100
AcDbEntity
  8
0
  6
DIVIDE
 62
     7
370
    13
100
AcDbLine
 10
-5.291075426446071
 20
90.79135328649171
 30
0.0
 11
-2.076790406246062
 21
91.74966820849171
 31
0.0
  0
LINE
  5
2C6
330
1F
100
AcDbEntity
  8
0
  6
DIVIDE
 62
     7
370
    13
100
AcDbLine
 10
-5.29107612054608
 20
91.79135336099172
 30
0.0
 11
-5.291075426446071
 21
90.79135328649171
 31
0.0
  0
LINE
  5
2C7
330
1F
100
AcDbEntity
  8
0
  6
DIVIDE
 62
     7
370
    13
100
AcDbLine
 10
1.24482346765393
 20
92.79135314869173
 30
0.0
 11
-1.326975393346061
 21
92.79135314869173
 31
0.0
  0
LINE
  5
2C8
330
1F
100
AcDbEntity
  8
0
  6
DIVIDE
 62
     7
370
    13
100
AcDbLine
 10
1.24482346765393
 20
83.7913535360917
 30
0.0
 11
0.7089238794539199
 21
81.79135336099172
 31
0.0
  0
LINE
  5
2C9
330
1F
100
AcDbEntity
  8
0
  6
DIVIDE
 62
     7
370
    13
100
AcDbLine
 10
-1.326975393346061
 20
83.7913535360917
 30
0.0
 11
1.24482346765393
 21
83.7913535360917
 31
0.0
  0
LINE
  5
2CA
330
1F
100
AcDbEntity
  8
0
  6
DIVIDE
 62
     7
370
    13
100
AcDbLine
 10
-0.7910761205460801
 20
81.79135336099172
 30
0.0
 11
-1.326975393346061
 21
83.7913535360917
 31
0.0
  0
ARC
  5
2CB
330
1F
100
AcDbEntity
  8
0
  6
DIVIDE
 62
     7
370
    13
100
AcDbCircle
 10
-5.373951533446075
 20
79.79204024159172
 30
0.0
 40
5.0
100
AcDbArc
 50
23.5695907157
 51
89.05027423229996
  0
ARC
  5
2CC
330
1F
100
AcDbEntity
  8
0
  6
DIVIDE
 62
     7
370
    13
100
AcDbCircle
 10
-5.373951533446075
 20
96.79066648039169
 30
0.0
 40
5.0
100
AcDbArc
 50
270.9497257677
 51
336.4304092843
  0
LINE
  5
2CD
330
1F
100
AcDbEntity
  8
0
  6
DIVIDE
 62
     7
370
    13
100
AcDbLine
 10
-1.326975393346061
 20
92.79135314869173
 30
0.0
 11
-0.7910761205460801
 21
94.79135336099172
 31
0.0
  0
LINE
  5
2CE
330
1F
100
AcDbEntity
  8
0
  6
DIVIDE
 62
     7
370
    13
100
AcDbLine
 10
0.7089238794539199
 20
94.79135336099172
 30
0.0
 11
1.24482346765393
 21
92.79135314869173
 31
0.0
  0
ARC
  5
2CF
330
1F
100
AcDbEntity
  8
0
  6
DIVIDE
 62
     7
370
    13
100
AcDbCircle
 10
-4.83274278714606
 20
88.29135336099172
 30
0.0
 40
8.5416666667
100
AcDbArc
 50
310.4497188623
 51
49.55028113769994
  0
LINE
  5
2D0
330
1F
100
AcDbEntity
  8
0
  6
DIVIDE
 62
     7
370
    13
100
AcDbLine
 10
-56.90571055774606
 20
98.16360983449171
 30
0.0
 11
-56.90571055774606
 21
108.4636098344917
 31
0.0
  0
LINE
  5
2D1
330
1F
100
AcDbEntity
  8
0
  6
DIVIDE
 62
     7
370
    13
100
AcDbLine
 10
-59.70230314044608
 20
108.4636098344917
 30
0.0
 11
-59.70230314044608
 21
98.16360983449171
 31
0.0
  0
LINE
  5
2D2
330
1F
100
AcDbEntity
  8
0
  6
DIVIDE
 62
     7
370
    13
100
AcDbLine
 10
3.770437520653928
 20
-100.2050041352083
 30
0.0
 11
1.770437520653928
 21
-100.2050041352083
 31
0.0
  0
LINE
  5
2D3
330
1F
100
AcDbEntity
  8
0
  6
DIVIDE
 62
     7
370
    13
100
AcDbLine
 10
3.770437520653928
 20
-103.2050041352083
 30
0.0
 11
1.770437520653928
 21
-103.2050041352083
 31
0.0
  0
ARC
  5
2D4
330
1F
100
AcDbEntity
  8
0
  6
DIVIDE
 62
     7
370
    13
100
AcDbCircle
 10
-32.43475005004606
 20
-102.8347710991083
 30
0.0
 40
47.6533857348
100
AcDbArc
 50
17.8130143896
 51
19.0805098138
  0
LINE
  5
2D5
330
1F
100
AcDbEntity
  8
0
  6
DIVIDE
 62
     7
370
    13
100
AcDbLine
 10
12.93412704715394
 20
-88.25704903800829
 30
0.0
 11
3.770436507353935
 21
-88.2570491721083
 31
0.0
  0
LINE
  5
2D6
330
1F
100
AcDbEntity
  8
0
  6
DIVIDE
 62
     7
370
    13
100
AcDbLine
 10
3.770437520653928
 20
-100.2050041352083
 30
0.0
 11
20.77043752065393
 21
-100.2050041352083
 31
0.0
  0
LINE
  5
2D7
330
1F
100
AcDbEntity
  8
0
  6
DIVIDE
 62
     7
370
    13
100
AcDbLine
 10
3.770437520653928
 20
-103.2050041352083
 30
0.0
 11
20.77043752065393
 21
-103.2050041352083
 31
0.0
  0
ARC
  5
2D8
330
1F
100
AcDbEntity
  8
0
  6
DIVIDE
 62
     7
370
    13
100
AcDbCircle
 10
20.77043752065393
 20
-94.2050041352083
 30
0.0
 40
6.0
100
AcDbArc
 50
270.0
 51
0.0
  0
ARC
  5
2D9
330
1F
100
AcDbEntity
  8
0
  6
DIVIDE
 62
     7
370
    13
100
AcDbCircle
 10
20.77043752065393
 20
-97.2050041352083
 30
0.0
 40
6.0
100
AcDbArc
 50
270.0
 51
0.0
  0
LINE
  5
2DA
330
1F
100
AcDbEntity
  8
0
  6
Continuous
 62
     7
370
    13
100
AcDbLine
 10
-58.22956247934607
 20
19.54766228129172
 30
0.0
 11
-2.229562479346072
 21
19.54766228129172
 31
0.0
  0
INSERT
  5
2DB
330
1F
100
AcDbEntity
  8
0
 62
     7
100
AcDbBlockReference
  2
_OPEN30
 10
-58.22956247934607
 20
19.54766228129172
 30
0.0
 41
3.000002807615286
 42
2.999989368223643
 50
180.0
  0
INSERT
  5
2DC
330
1F
100
AcDbEntity
  8
0
 62
     7
100
AcDbBlockReference
  2
_OPEN30
 10
-2.229562479346072
 20
19.54766228129172
 30
0.0
 41
3.000002807615286
 42
2.999989368223643
 50
360.0
  0
LINE
  5
2DD
330
1F
100
AcDbEntity
  8
0
  6
Continuous
 62
     7
370
    13
100
AcDbLine
 10
-2.229562479346072
 20
19.54766228129172
 30
0.0
 11
7.270437520653928
 21
19.54766228129172
 31
0.0
  0
INSERT
  5
2DE
330
1F
100
AcDbEntity
  8
0
 62
     7
100
AcDbBlockReference
  2
_OPEN30
 10
-2.229562479346072
 20
19.54766228129172
 30
0.0
 41
3.000002807615286
 42
2.999989368223643
 50
180.0
  0
INSERT
  5
2DF
330
1F
100
AcDbEntity
  8
0
 62
     7
100
AcDbBlockReference
  2
_OPEN30
 10
7.270437520653928
 20
19.54766228129172
 30
0.0
 41
3.000002807615286
 42
2.999989368223643
 50
360.0
  0
LINE
  5
2E0
330
1F
100
AcDbEntity
  8
0
  6
Continuous
 62
     7
370
    13
100
AcDbLine
 10
7.270437520653928
 20
19.54766228129172
 30
0.0
 11
16.27043752065393
 21
19.54766228129172
 31
0.0
  0
INSERT
  5
2E1
330
1F
100
AcDbEntity
  8
0
 62
     7
100
AcDbBlockReference
  2
_OPEN30
 10
7.270437520653928
 20
19.54766228129172
 30
0.0
 41
3.000002807615286
 42
2.999989368223643
 50
180.0
  0
INSERT
  5
2E2
330
1F
100
AcDbEntity
  8
0
 62
     7
100
AcDbBlockReference
  2
_OPEN30
 10
16.27043752065393
 20
19.54766228129172
 30
0.0
 41
3.000002807615286
 42
2.999989368223643
 50
360.0
  0
LINE
  5
2E3
330
1F
100
AcDbEntity
  8
0
  6
Continuous
 62
     7
370
    13
100
AcDbLine
 10
-58.22956247934607
 20
118.0299098187917
 30
0.0
 11
-8.229562479346072
 21
118.0299098187917
 31
0.0
  0
INSERT
  5
2E4
330
1F
100
AcDbEntity
  8
0
 62
     7
100
AcDbBlockReference
  2
_OPEN30
 10
-58.22956247934607
 20
118.0299098187917
 30
0.0
 41
3.000002807615286
 42
2.999989368223643
 50
180.0
  0
INSERT
  5
2E5
330
1F
100
AcDbEntity
  8
0
 62
     7
100
AcDbBlockReference
  2
_OPEN30
 10
-8.229562479346072
 20
118.0299098187917
 30
0.0
 41
3.000002807615286
 42
2.999989368223643
 50
360.0
  0
LINE
  5
2E6
330
1F
100
AcDbEntity
  8
0
  6
Continuous
 62
     7
370
    13
100
AcDbLine
 10
89.48553489625394
 20
13.33345214789171
 30
0.0
 11
103.4855348962539
 21
13.33345214789171
 31
0.0
  0
INSERT
  5
2E7
330
1F
100
AcDbEntity
  8
0
 62
     7
100
AcDbBlockReference
  2
_OPEN30
 10
89.48553489625394
 20
13.33345214789171
 30
0.0
 41
3.000002807615286
 42
2.999989368223643
 50
180.0
  0
INSERT
  5
2E8
330
1F
100
AcDbEntity
  8
0
 62
     7
100
AcDbBlockReference
  2
_OPEN30
 10
103.4855348962539
 20
13.33345214789171
 30
0.0
 41
3.000002807615286
 42
2.999989368223643
 50
360.0
  0
LINE
  5
2E9
330
1F
100
AcDbEntity
  8
0
  6
Continuous
 62
     7
370
    13
100
AcDbLine
 10
103.4855348962539
 20
13.33345214789171
 30
0.0
 11
125.4855348962539
 21
13.33345214789171
 31
0.0
  0
INSERT
  5
2EA
330
1F
100
AcDbEntity
  8
0
 62
     7
100
AcDbBlockReference
  2
_OPEN30
 10
103.4855348962539
 20
13.33345214789171
 30
0.0
 41
3.000002807615286
 42
2.999989368223643
 50
180.0
  0
INSERT
  5
2EB
330
1F
100
AcDbEntity
  8
0
 62
     7
100
AcDbBlockReference
  2
_OPEN30
 10
125.4855348962539
 20
13.33345214789171
 30
0.0
 41
3.000002807615286
 42
2.999989368223643
 50
360.0
  0
LINE
  5
2EC
330
1F
100
AcDbEntity
  8
0
  6
Continuous
 62
     7
370
    13
100
AcDbLine
 10
140.535187386354
 20
-20.3849294327083
 30
0.0
 11
140.535187386354
 21
-73.38492943270829
 31
0.0
  0
INSERT
  5
2ED
330
1F
100
AcDbEntity
  8
0
 62
     7
100
AcDbBlockReference
  2
_OPEN30
 10
140.535187386354
 20
-20.3849294327083
 30
0.0
 41
3.000002807615286
 42
2.999989368223643
 50
90.0
  0
INSERT
  5
2EE
330
1F
100
AcDbEntity
  8
0
 62
     7
100
AcDbBlockReference
  2
_OPEN30
 10
140.535187386354
 20
-73.38492943270829
 30
0.0
 41
3.000002807615286
 42
2.999989368223643
 50
270.0
  0
LINE
  5
2EF
330
1F
100
AcDbEntity
  8
0
  6
Continuous
 62
     7
370
    13
100
AcDbLine
 10
133.656363564654
 20
-33.3849294327083
 30
0.0
 11
133.656363564654
 21
-60.38492943270829
 31
0.0
  0
INSERT
  5
2F0
330
1F
100
AcDbEntity
  8
0
 62
     7
100
AcDbBlockReference
  2
_OPEN30
 10
133.656363564654
 20
-33.3849294327083
 30
0.0
 41
3.000002807615286
 42
2.999989368223643
 50
90.0
  0
INSERT
  5
2F1
330
1F
100
AcDbEntity
  8
0
 62
     7
100
AcDbBlockReference
  2
_OPEN30
 10
133.656363564654
 20
-60.38492943270829
 30
0.0
 41
3.000002807615286
 42
2.999989368223643
 50
270.0
  0
LINE
  5
2F2
330
1F
100
AcDbEntity
  8
0
  6
Continuous
 62
     7
370
    13
100
AcDbLine
 10
93.98553489625394
 20
-110.5582051557083
 30
0.0
 11
103.4855348962539
 21
-110.5582051557083
 31
0.0
  0
INSERT
  5
2F3
330
1F
100
AcDbEntity
  8
0
 62
     7
100
AcDbBlockReference
  2
_OPEN30
 10
93.98553489625394
 20
-110.5582051557083
 30
0.0
 41
3.000002807615286
 42
2.999989368223643
 50
180.0
  0
INSERT
  5
2F4
330
1F
100
AcDbEntity
  8
0
 62
     7
100
AcDbBlockReference
  2
_OPEN30
 10
103.4855348962539
 20
-110.5582051557083
 30
0.0
 41
3.000002807615286
 42
2.999989368223643
 50
360.0
  0
LINE
  5
2F5
330
1F
100
AcDbEntity
  8
0
  6
Continuous
 62
     7
370
    13
100
AcDbLine
 10
103.4855348962539
 20
-110.5582051557083
 30
0.0
 11
115.9855348962539
 21
-110.5582051557083
 31
0.0
  0
INSERT
  5
2F6
330
1F
100
AcDbEntity
  8
0
 62
     7
100
AcDbBlockReference
  2
_OPEN30
 10
103.4855348962539
 20
-110.5582051557083
 30
0.0
 41
3.000002807615286
 42
2.999989368223643
 50
180.0
  0
INSERT
  5
2F7
330
1F
100
AcDbEntity
  8
0
 62
     7
100
AcDbBlockReference
  2
_OPEN30
 10
115.9855348962539
 20
-110.5582051557083
 30
0.0
 41
3.000002807615286
 42
2.999989368223643
 50
360.0
  0
LINE
  5
2F8
330
1F
100
AcDbEntity
  8
0
  6
Continuous
 62
     7
370
    13
100
AcDbLine
 10
147.334019841554
 20
-7.384929432708306
 30
0.0
 11
147.334019841554
 21
-86.38492943270829
 31
0.0
  0
INSERT
  5
2F9
330
1F
100
AcDbEntity
  8
0
 62
     7
100
AcDbBlockReference
  2
_OPEN30
 10
147.334019841554
 20
-7.384929432708306
 30
0.0
 41
3.000002807615286
 42
2.999989368223643
 50
90.0
  0
INSERT
  5
2FA
330
1F
100
AcDbEntity
  8
0
 62
     7
100
AcDbBlockReference
  2
_OPEN30
 10
147.334019841554
 20
-86.38492943270829
 30
0.0
 41
3.000002807615286
 42
2.999989368223643
 50
270.0
  0
LINE
  5
2FB
330
1F
100
AcDbEntity
  8
0
  6
Continuous
 62
     7
370
    13
100
AcDbLine
 10
89.48553489625394
 20
19.13984314109172
 30
0.0
 11
125.4855348962539
 21
19.13984314109172
 31
0.0
  0
INSERT
  5
2FC
330
1F
100
AcDbEntity
  8
0
 62
     7
100
AcDbBlockReference
  2
_OPEN30
 10
89.48553489625394
 20
19.13984314109172
 30
0.0
 41
3.000002807615286
 42
2.999989368223643
 50
180.0
  0
INSERT
  5
2FD
330
1F
100
AcDbEntity
  8
0
 62
     7
100
AcDbBlockReference
  2
_OPEN30
 10
125.4855348962539
 20
19.13984314109172
 30
0.0
 41
3.000002807615286
 42
2.999989368223643
 50
360.0
  0
LINE
  5
2FE
330
1F
100
AcDbEntity
  8
0
  6
Continuous
 62
     7
370
    13
100
AcDbLine
 10
78.40350701295395
 20
8.115070567291696
 30
0.0
 11
78.40350701295395
 21
-101.8849294327083
 31
0.0
  0
INSERT
  5
2FF
330
1F
100
AcDbEntity
  8
0
 62
     7
100
AcDbBlockReference
  2
_OPEN30
 10
78.40350701295395
 20
8.115070567291696
 30
0.0
 41
3.000002807615286
 42
2.999989368223643
 50
90.0
  0
INSERT
  5
300
330
1F
100
AcDbEntity
  8
0
 62
     7
100
AcDbBlockReference
  2
_OPEN30
 10
78.40350701295395
 20
-101.8849294327083
 30
0.0
 41
3.000002807615286
 42
2.999989368223643
 50
270.0
  0
LINE
  5
301
330
1F
100
AcDbEntity
  8
0
  6
Continuous
 62
     7
370
    13
100
AcDbLine
 10
34.02728364975394
 20
-4.2050041352083
 30
0.0
 11
34.02728364975394
 21
-46.7050041352083
 31
0.0
  0
INSERT
  5
302
330
1F
100
AcDbEntity
  8
0
 62
     7
100
AcDbBlockReference
  2
_OPEN30
 10
34.02728364975394
 20
-4.2050041352083
 30
0.0
 41
3.000002807615286
 42
2.999989368223643
 50
90.0
  0
INSERT
  5
303
330
1F
100
AcDbEntity
  8
0
 62
     7
100
AcDbBlockReference
  2
_OPEN30
 10
34.02728364975394
 20
-46.7050041352083
 30
0.0
 41
3.000002807615286
 42
2.999989368223643
 50
270.0
  0
LINE
  5
304
330
1F
100
AcDbEntity
  8
0
  6
Continuous
 62
     7
370
    13
100
AcDbLine
 10
11.27043752065393
 20
11.8097120035917
 30
0.0
 11
21.77043752065393
 21
11.8097120035917
 31
0.0
  0
INSERT
  5
305
330
1F
100
AcDbEntity
  8
0
 62
     7
100
AcDbBlockReference
  2
_OPEN30
 10
11.27043752065393
 20
11.8097120035917
 30
0.0
 41
3.000002807615286
 42
2.999989368223643
 50
180.0
  0
INSERT
  5
306
330
1F
100
AcDbEntity
  8
0
 62
     7
100
AcDbBlockReference
  2
_OPEN30
 10
21.77043752065393
 20
11.8097120035917
 30
0.0
 41
3.000002807615286
 42
2.999989368223643
 50
360.0
  0
LINE
  5
307
330
1F
100
AcDbEntity
  8
0
  6
Continuous
 62
     7
370
    13
100
AcDbLine
 10
34.02728364975394
 20
-46.7050041352083
 30
0.0
 11
34.02728364975394
 21
-89.2050041352083
 31
0.0
  0
INSERT
  5
308
330
1F
100
AcDbEntity
  8
0
 62
     7
100
AcDbBlockReference
  2
_OPEN30
 10
34.02728364975394
 20
-46.7050041352083
 30
0.0
 41
3.000002807615286
 42
2.999989368223643
 50
90.0
  0
INSERT
  5
309
330
1F
100
AcDbEntity
  8
0
 62
     7
100
AcDbBlockReference
  2
_OPEN30
 10
34.02728364975394
 20
-89.2050041352083
 30
0.0
 41
3.000002807615286
 42
2.999989368223643
 50
270.0
  0
LINE
  5
30A
330
1F
100
AcDbEntity
  8
0
  6
Continuous
 62
     7
370
    13
100
AcDbLine
 10
40.86244844485392
 20
8.294995864791701
 30
0.0
 11
40.86244844485392
 21
-101.7050041352083
 31
0.0
  0
INSERT
  5
30B
330
1F
100
AcDbEntity
  8
0
 62
     7
100
AcDbBlockReference
  2
_OPEN30
 10
40.86244844485392
 20
8.294995864791701
 30
0.0
 41
3.000002807615286
 42
2.999989368223643
 50
90.0
  0
INSERT
  5
30C
330
1F
100
AcDbEntity
  8
0
 62
     7
100
AcDbBlockReference
  2
_OPEN30
 10
40.86244844485392
 20
-101.7050041352083
 30
0.0
 41
3.000002807615286
 42
2.999989368223643
 50
270.0
  0
LINE
  5
30D
330
1F
100
AcDbEntity
  8
0
  6
CENTER
 62
     7
370
    13
100
AcDbLine
 10
-58.22956247934607
 20
-42.13806674530828
 30
0.0
 11
-58.22956247934607
 21
-132.3833123035138
 31
0.0
  0
LINE
  5
30E
330
1F
100
AcDbEntity
  8
0
  6
CENTER
 62
     7
370
    13
100
AcDbLine
 10
22.26272352905394
 20
45.86360983449173
 30
0.0
 11
-102.0055607123461
 21
45.86360983449173
 31
0.0
  0
LINE
  5
30F
330
1F
100
AcDbEntity
  8
0
  6
CENTER
 62
     7
370
    13
100
AcDbLine
 10
-76.72956247934607
 20
56.10508807269171
 30
0.0
 11
-76.72956247934607
 21
45.66479480699171
 31
0.0
  0
LINE
  5
310
330
1F
100
AcDbEntity
  8
0
  6
CENTER
 62
     7
370
    13
100
AcDbLine
 10
-58.22956247934607
 20
116.1152113374917
 30
0.0
 11
-58.22956247934607
 21
22.37732267289171
 31
0.0
  0
LINE
  5
311
330
1F
100
AcDbEntity
  8
0
  6
CENTER
 62
     7
370
    13
100
AcDbLine
 10
-98.52644987194607
 20
-81.75704903800829
 30
0.0
 11
20.75341521145393
 21
-81.75704903800829
 31
0.0
  0
LINE
  5
312
330
1F
100
AcDbEntity
  8
0
  6
CENTER
 62
     7
370
    13
100
AcDbLine
 10
103.4855348962539
 20
12.4569868645917
 30
0.0
 11
103.4855348962539
 21
-60.5197892170083
 31
0.0
  0
LINE
  5
313
330
1F
100
AcDbEntity
  8
0
  6
CENTER
 62
     7
370
    13
100
AcDbLine
 10
82.63156481805393
 20
-46.88492943270829
 30
0.0
 11
128.5981845849539
 21
-46.88492943270829
 31
0.0
  0
LINE
  5
314
330
1F
100
AcDbEntity
  8
0
  6
CENTER
 62
     7
370
    13
100
AcDbLine
 10
120.8579179951539
 20
-4.384929432708306
 30
0.0
 11
128.5325288559539
 21
-4.384929432708306
 31
0.0
  0
LINE
  5
315
330
1F
100
AcDbEntity
  8
0
  6
CENTER
 62
     7
370
    13
100
AcDbLine
 10
121.7637737033539
 20
-89.38492943270829
 30
0.0
 11
127.5763478306539
 21
-89.38492943270829
 31
0.0
  0
LINE
  5
316
330
1F
100
AcDbEntity
  8
0
  6
CENTER
 62
     7
370
    13
100
AcDbLine
 10
103.4855348962539
 20
-70.5250976900083
 30
0.0
 11
103.4855348962539
 21
-105.8635770528083
 31
0.0
  0
LINE
  5
317
330
1F
100
AcDbEntity
  8
0
  6
CENTER
 62
     7
370
    13
100
AcDbLine
 10
11.27043752065393
 20
2.374478231491706
 30
0.0
 11
11.27043752065393
 21
-11.67058144310829
 31
0.0
  0
LINE
  5
318
330
1F
100
AcDbEntity
  8
0
  6
CENTER
 62
     7
370
    13
100
AcDbLine
 10
21.77043752065393
 20
-39.24567122020829
 30
0.0
 11
21.77043752065393
 21
-53.6788002107083
 31
0.0
  0
LINE
  5
319
330
1F
100
AcDbEntity
  8
0
  6
CENTER
 62
     7
370
    13
100
AcDbLine
 10
16.64055273835393
 20
-4.2050041352083
 30
0.0
 11
5.715343075253941
 21
-4.2050041352083
 31
0.0
  0
LINE
  5
31A
330
1F
100
AcDbEntity
  8
0
  6
CENTER
 62
     7
370
    13
100
AcDbLine
 10
-1.628421418846074
 20
-46.7050041352083
 30
0.0
 11
30.15689635795394
 21
-46.7050041352083
 31
0.0
  0
LINE
  5
31B
330
1F
100
AcDbEntity
  8
0
  6
CENTER
 62
     7
370
    13
100
AcDbLine
 10
11.27043752065393
 20
-94.3953042900083
 30
0.0
 11
11.27043752065393
 21
-81.0380070371083
 31
0.0
  0
LINE
  5
31C
330
1F
100
AcDbEntity
  8
0
  6
CENTER
 62
     7
370
    13
100
AcDbLine
 10
11.27043794086389
 20
60.81535469999174
 30
0.0
 11
11.27043794086389
 21
71.0676541663917
 31
0.0
  0
LINE
  5
31D
330
1F
100
AcDbEntity
  8
0
  6
CENTER
 62
     7
370
    13
100
AcDbLine
 10
21.77043794086389
 20
58.01688509359171
 30
0.0
 11
21.77043794086389
 21
83.63501609729171
 31
0.0
  0
LINE
  5
31E
330
1F
100
AcDbEntity
  8
0
  6
DASHED2
 62
     7
370
    13
100
AcDbLine
 10
-71.97799599634607
 20
65.16360983449171
 30
0.0
 11
-71.97799599634607
 21
68.16360983449171
 31
0.0
  0
LINE
  5
31F
330
1F
100
AcDbEntity
  8
0
  6
DASHED2
 62
     7
370
    13
100
AcDbLine
 10
-44.48112896234608
 20
65.16360983449171
 30
0.0
 11
-71.97799599634607
 21
65.16360983449171
 31
0.0
  0
LINE
  5
320
330
1F
100
AcDbEntity
  8
0
  6
DASHED2
 62
     7
370
    13
100
AcDbLine
 10
-44.48112896234608
 20
65.16360983449171
 30
0.0
 11
-44.48112896234608
 21
68.16360983449171
 31
0.0
  0
LINE
  5
321
330
1F
100
AcDbEntity
  8
0
  6
DASHED2
 62
     7
370
    13
100
AcDbLine
 10
123.4855344492539
 20
-50.3849295407083
 30
0.0
 11
125.4855347770539
 21
-50.3849295407083
 31
0.0
  0
LINE
  5
322
330
1F
100
AcDbEntity
  8
0
  6
DASHED2
 62
     7
370
    13
100
AcDbLine
 10
125.4855347770539
 20
-43.3849293247083
 30
0.0
 11
123.4855344492539
 21
-43.3849293247083
 31
0.0
  0
LINE
  5
323
330
1F
100
AcDbEntity
  8
0
  6
DASHED2
 62
     7
370
    13
100
AcDbLine
 10
125.4855347770539
 20
-0.8849293433083023
 30
0.0
 11
123.4855344492539
 21
-0.8849293433083023
 31
0.0
  0
LINE
  5
324
330
1F
100
AcDbEntity
  8
0
  6
DASHED2
 62
     7
370
    13
100
AcDbLine
 10
123.4855344492539
 20
-92.8849295221083
 30
0.0
 11
125.4855347770539
 21
-92.8849295221083
 31
0.0
  0
LINE
  5
325
330
1F
100
AcDbEntity
  8
0
  6
DASHED2
 62
     7
370
    13
100
AcDbLine
 10
125.4855347770539
 20
-85.8849302374083
 30
0.0
 11
123.4855344492539
 21
-85.8849302374083
 31
0.0
  0
LINE
  5
326
330
1F
100
AcDbEntity
  8
0
  6
DASHED2
 62
     7
370
    13
100
AcDbLine
 10
123.4855344492539
 20
-7.884928628008284
 30
0.0
 11
125.4855347770539
 21
-7.884928628008284
 31
0.0
  0
LINE
  5
327
330
1F
100
AcDbEntity
  8
0
  6
Continuous
 62
     7
370
    13
100
AcDbLine
 10
-8.955178028246081
 20
53.86360983449173
 30
0.0
 11
-8.955178028246081
 21
60.34560726069172
 31
0.0
  0
INSERT
  5
328
330
1F
100
AcDbEntity
  8
0
 62
     7
100
AcDbBlockReference
  2
_OPEN30
 10
-8.955178028246081
 20
53.86360983449173
 30
0.0
 41
3.000002807615286
 42
2.999989368223643
 50
270.0
  0
LINE
  5
329
330
1F
100
AcDbEntity
  8
0
  6
Continuous
 62
     7
370
    13
100
AcDbLine
 10
-8.955178028246081
 20
41.86360983449173
 30
0.0
 11
-8.955178028246081
 21
34.99405830749173
 31
0.0
  0
INSERT
  5
32A
330
1F
100
AcDbEntity
  8
0
 62
     7
100
AcDbBlockReference
  2
_OPEN30
 10
-8.955178028246081
 20
41.86360983449173
 30
0.0
 41
3.000002807615286
 42
2.999989368223643
 50
90.0
  0
LINE
  5
32B
330
1F
100
AcDbEntity
  8
0
  6
Continuous
 62
     7
370
    13
100
AcDbLine
 10
98.48553489625394
 20
-65.1309313828083
 30
0.0
 11
93.48553489625394
 21
-65.1309313828083
 31
0.0
  0
INSERT
  5
32C
330
1F
100
AcDbEntity
  8
0
 62
     7
100
AcDbBlockReference
  2
_OPEN30
 10
98.48553489625394
 20
-65.1309313828083
 30
0.0
 41
3.000002807615286
 42
2.999989368223643
 50
360.0
  0
LINE
  5
32D
330
1F
100
AcDbEntity
  8
0
  6
Continuous
 62
     7
370
    13
100
AcDbLine
 10
108.4855348962539
 20
-65.1309313828083
 30
0.0
 11
113.4855348962539
 21
-65.1309313828083
 31
0.0
  0
INSERT
  5
32E
330
1F
100
AcDbEntity
  8
0
 62
     7
100
AcDbBlockReference
  2
_OPEN30
 10
108.4855348962539
 20
-65.1309313828083
 30
0.0
 41
3.000002807615286
 42
2.999989368223643
 50
180.0
  0
LINE
  5
32F
330
1F
100
AcDbEntity
  8
0
  6
Continuous
 62
     7
370
    13
100
AcDbLine
 10
26.77043752065393
 20
11.8097120035917
 30
0.0
 11
32.66062663275392
 21
11.8097120035917
 31
0.0
  0
INSERT
  5
330
330
1F
100
AcDbEntity
  8
0
 62
     7
100
AcDbBlockReference
  2
_OPEN30
 10
26.77043752065393
 20
11.8097120035917
 30
0.0
 41
3.000002807615286
 42
2.999989368223643
 50
180.0
  0
LINE
  5
331
330
1F
100
AcDbEntity
  8
0
  6
Continuous
 62
     7
370
    13
100
AcDbLine
 10
-0.6881666932460746
 20
-0.7050041352083003
 30
0.0
 11
-0.6881666932460746
 21
4.2949958647917
 31
0.0
  0
INSERT
  5
332
330
1F
100
AcDbEntity
  8
0
 62
     7
100
AcDbBlockReference
  2
_OPEN30
 10
-0.6881666932460746
 20
-0.7050041352083003
 30
0.0
 41
3.000002807615286
 42
2.999989368223643
 50
270.0
  0
LINE
  5
333
330
1F
100
AcDbEntity
  8
0
  6
Continuous
 62
     7
370
    13
100
AcDbLine
 10
-0.6881666932460746
 20
-7.7050041352083
 30
0.0
 11
-0.6881666932460746
 21
-12.7050041352083
 31
0.0
  0
INSERT
  5
334
330
1F
100
AcDbEntity
  8
0
 62
     7
100
AcDbBlockReference
  2
_OPEN30
 10
-0.6881666932460746
 20
-7.7050041352083
 30
0.0
 41
3.000002807615286
 42
2.999989368223643
 50
90.0
  0
LINE
  5
335
330
1F
100
AcDbEntity
  8
0
  6
Continuous
 62
     7
370
    13
100
AcDbLine
 10
9.020437520653928
 20
-19.19704168700829
 30
0.0
 11
4.020437520653928
 21
-19.19704168700829
 31
0.0
  0
INSERT
  5
336
330
1F
100
AcDbEntity
  8
0
 62
     7
100
AcDbBlockReference
  2
_OPEN30
 10
9.020437520653928
 20
-19.19704168700829
 30
0.0
 41
3.000002807615286
 42
2.999989368223643
 50
360.0
  0
LINE
  5
337
330
1F
100
AcDbEntity
  8
0
  6
Continuous
 62
     7
370
    13
100
AcDbLine
 10
13.52043752065393
 20
-19.19704168700829
 30
0.0
 11
22.53327001705392
 21
-19.19704168700829
 31
0.0
  0
INSERT
  5
338
330
1F
100
AcDbEntity
  8
0
 62
     7
100
AcDbBlockReference
  2
_OPEN30
 10
13.52043752065393
 20
-19.19704168700829
 30
0.0
 41
3.000002807615286
 42
2.999989368223643
 50
180.0
  0
LINE
  5
339
330
1F
100
AcDbEntity
  8
0
  6
Continuous
 62
     7
370
    13
100
AcDbLine
 10
23.38287606415392
 20
-103.2050041352083
 30
0.0
 11
23.38287606415392
 21
-124.5960167650083
 31
0.0
  0
INSERT
  5
33A
330
1F
100
AcDbEntity
  8
0
 62
     7
100
AcDbBlockReference
  2
_OPEN30
 10
23.38287606415392
 20
-103.2050041352083
 30
0.0
 41
3.000002807615286
 42
2.999989368223643
 50
90.0
  0
LINE
  5
33B
330
1F
100
AcDbEntity
  8
0
  6
Continuous
 62
     7
370
    13
100
AcDbLine
 10
23.38287606415392
 20
-100.2050041352083
 30
0.0
 11
23.38287606415392
 21
-95.2050041352083
 31
0.0
  0
INSERT
  5
33C
330
1F
100
AcDbEntity
  8
0
 62
     7
100
AcDbBlockReference
  2
_OPEN30
 10
23.38287606415392
 20
-100.2050041352083
 30
0.0
 41
3.000002807615286
 42
2.999989368223643
 50
270.0
  0
LINE
  5
33D
330
1F
100
AcDbEntity
  8
0
  6
Continuous
 62
     7
370
    13
100
AcDbLine
 10
-8.955178028246081
 20
53.86360983449173
 30
0.0
 11
-8.955178028246081
 21
49.86360983449173
 31
0.0
  0
INSERT
  5
346
330
1F
100
AcDbEntity
  8
0
 62
     7
100
AcDbBlockReference
  2
_DOT
 10
-8.955178028246081
 20
49.86360983449173
 30
0.0
 41
0.5
 42
0.5
 50
270.0
  0
TEXT
  5
347
330
1F
100
AcDbEntity
  8
0
 62
     7
100
AcDbText
 10
-32.81651900104606
 20
19.8848715835917
 30
0.0
 40
3.499999999999999
  1
56
 41
0.7692307692307694
  7
dcStyle0
 72
     5
 11
-29.31651900104606
 21
19.8848715835917
 31
0.0
100
AcDbText
  0
TEXT
  5
348
330
1F
100
AcDbEntity
  8
0
 62
     7
100
AcDbText
 10
-0.426623348946066
 20
19.8848715835917
 30
0.0
 40
3.499999999999999
  1
9.5
 41
0.7692307692307692
  7
dcStyle0
 72
     5
 11
4.823376651053932
 21
19.8848715835917
 31
0.0
100
AcDbText
  0
TEXT
  5
349
330
1F
100
AcDbEntity
  8
0
 62
     7
100
AcDbText
 10
10.47695925975393
 20
19.8848715835917
 30
0.0
 40
3.499999999999999
  1
9
 41
0.7692307692307694
  7
dcStyle0
 72
     5
 11
12.22695925975393
 21
19.8848715835917
 31
0.0
100
AcDbText
  0
TEXT
  5
34A
330
1F
100
AcDbEntity
  8
0
 62
     7
100
AcDbText
 10
-9.292387330546063
 20
56.17115073889171
 30
0.0
 40
3.499999999999999
  1
4
 50
90.0
 41
0.7692307692307694
  7
dcStyle0
 72
     5
 11
-9.292387330546063
 21
57.92115073889171
 31
0.0
100
AcDbText
  0
TEXT
  5
34B
330
1F
100
AcDbEntity
  8
0
 62
     7
100
AcDbText
 10
-9.292387330546063
 20
36.5815583074917
 30
0.0
 40
3.499999999999999
  1
8
 50
90.0
 41
0.7692307692307694
  7
dcStyle0
 72
     5
 11
-9.292387330546063
 21
38.3315583074917
 31
0.0
100
AcDbText
  0
TEXT
  5
34C
330
1F
100
AcDbEntity
  8
0
 62
     7
100
AcDbText
 10
-40.82733639234607
 20
118.3671191211917
 30
0.0
 40
3.499999999999999
  1
B/S50
 41
0.7692307692307695
  7
dcStyle0
 72
     5
 11
-32.07733639234607
 21
118.3671191211917
 31
0.0
100
AcDbText
  0
TEXT
  5
34D
330
1F
100
AcDbEntity
  8
0
 62
     7
100
AcDbText
 10
93.89607648235395
 20
13.6706614502917
 30
0.0
 40
3.499999999999999
  1
14
 41
0.7692307692307694
  7
dcStyle0
 72
     5
 11
97.39607648235395
 21
13.6706614502917
 31
0.0
100
AcDbText
  0
TEXT
  5
34E
330
1F
100
AcDbEntity
  8
0
 62
     7
100
AcDbText
 10
111.8960764823539
 20
13.6706614502917
 30
0.0
 40
3.499999999999999
  1
22
 41
0.7692307692307694
  7
dcStyle0
 72
     5
 11
115.3960764823539
 21
13.6706614502917
 31
0.0
100
AcDbText
  0
TEXT
  5
34F
330
1F
100
AcDbEntity
  8
0
 62
     7
100
AcDbText
 10
140.1979780839539
 20
-49.47438784660829
 30
0.0
 40
3.499999999999999
  1
53
 50
90.0
 41
0.7692307692307694
  7
dcStyle0
 72
     5
 11
140.1979780839539
 21
-45.97438784660829
 31
0.0
100
AcDbText
  0
TEXT
  5
350
330
1F
100
AcDbEntity
  8
0
 62
     7
100
AcDbText
 10
133.3191542623539
 20
-49.47438784660829
 30
0.0
 40
3.499999999999999
  1
27
 50
90.0
 41
0.7692307692307694
  7
dcStyle0
 72
     5
 11
133.3191542623539
 21
-45.97438784660829
 31
0.0
100
AcDbText
  0
TEXT
  5
351
330
1F
100
AcDbEntity
  8
0
 62
     7
100
AcDbText
 10
95.78562387115394
 20
-110.2209958534083
 30
0.0
 40
3.499999999999999
  1
9.5
 41
0.7692307692307694
  7
dcStyle0
 72
     5
 11
101.0356238711539
 21
-110.2209958534083
 31
0.0
100
AcDbText
  0
TEXT
  5
352
330
1F
100
AcDbEntity
  8
0
 62
     7
100
AcDbText
 10
105.490894664154
 20
-110.2209958534083
 30
0.0
 40
3.499999999999999
  1
12.5
 41
0.7692307692307694
  7
dcStyle0
 72
     5
 11
112.490894664154
 21
-110.2209958534083
 31
0.0
100
AcDbText
  0
TEXT
  5
353
330
1F
100
AcDbEntity
  8
0
 62
     7
100
AcDbText
 10
146.9968105391539
 20
-49.47438784660829
 30
0.0
 40
3.499999999999999
  1
79
 50
90.0
 41
0.7692307692307694
  7
dcStyle0
 72
     5
 11
146.9968105391539
 21
-45.97438784660829
 31
0.0
100
AcDbText
  0
TEXT
  5
354
330
1F
100
AcDbEntity
  8
0
 62
     7
100
AcDbText
 10
104.8960764823539
 20
19.4770524433917
 30
0.0
 40
3.499999999999999
  1
36
 41
0.7692307692307694
  7
dcStyle0
 72
     5
 11
108.3960764823539
 21
19.4770524433917
 31
0.0
100
AcDbText
  0
TEXT
  5
355
330
1F
100
AcDbEntity
  8
0
 62
     7
100
AcDbText
 10
78.06629771065391
 20
-50.7691170536083
 30
0.0
 40
3.499999999999999
  1
110
 50
90.0
 41
0.7692307692307694
  7
dcStyle0
 72
     5
 11
78.06629771065391
 21
-45.5191170536083
 31
0.0
100
AcDbText
  0
TEXT
  5
356
330
1F
100
AcDbEntity
  8
0
 62
     7
100
AcDbText
 10
100.8960764823539
 20
-64.7937220805083
 30
0.0
 40
3.499999999999999
  1
10
 41
0.7692307692307694
  7
dcStyle0
 72
     5
 11
104.3960764823539
 21
-64.7937220805083
 31
0.0
100
AcDbText
  0
TEXT
  5
357
330
1F
100
AcDbEntity
  8
0
 62
     7
100
AcDbText
 10
33.69007434745393
 20
-29.69964436730831
 30
0.0
 40
3.499999999999999
  1
42.5
 50
90.0
 41
0.7692307692307694
  7
dcStyle0
 72
     5
 11
33.69007434745393
 21
-22.69964436730831
 31
0.0
100
AcDbText
  0
TEXT
  5
358
330
1F
100
AcDbEntity
  8
0
 62
     7
100
AcDbText
 10
33.69007434745393
 20
-72.1996443673083
 30
0.0
 40
3.499999999999999
  1
42.5
 50
90.0
 41
0.7692307692307694
  7
dcStyle0
 72
     5
 11
33.69007434745393
 21
-65.1996443673083
 31
0.0
100
AcDbText
  0
TEXT
  5
359
330
1F
100
AcDbEntity
  8
0
 62
     7
100
AcDbText
 10
12.27579728845393
 20
12.14692130589171
 30
0.0
 40
3.499999999999999
  1
10.5
 41
0.7692307692307694
  7
dcStyle0
 72
     5
 11
19.27579728845393
 21
12.14692130589171
 31
0.0
100
AcDbText
  0
TEXT
  5
35A
330
1F
100
AcDbEntity
  8
0
 62
     7
100
AcDbText
 10
28.48366821885392
 20
12.14692130589171
 30
0.0
 40
3.499999999999999
  1
5
 41
0.7692307692307694
  7
dcStyle0
 72
     5
 11
30.23366821885392
 21
12.14692130589171
 31
0.0
100
AcDbText
  0
TEXT
  5
35B
330
1F
100
AcDbEntity
  8
0
 62
     7
100
AcDbText
 10
40.52523914245393
 20
-50.58919175610829
 30
0.0
 40
3.499999999999999
  1
110
 50
90.0
 41
0.7692307692307694
  7
dcStyle0
 72
     5
 11
40.52523914245393
 21
-45.33919175610829
 31
0.0
100
AcDbText
  0
TEXT
  5
35C
330
1F
100
AcDbEntity
  8
0
 62
     7
100
AcDbText
 10
-1.025375995646074
 20
-5.499733342208289
 30
0.0
 40
3.499999999999999
  1
7
 50
90.0
 41
0.769230769230769
  7
dcStyle0
 72
     5
 11
-1.025375995646074
 21
-3.74973334220829
 31
0.0
100
AcDbText
  0
TEXT
  5
35D
330
1F
100
AcDbEntity
  8
0
 62
     7
100
AcDbText
 10
15.04594796675394
 20
-18.8598323846083
 30
0.0
 40
3.499999999999999
  1
4.5
 41
0.7692307692307694
  7
dcStyle0
 72
     5
 11
20.29594796675394
 21
-18.8598323846083
 31
0.0
100
AcDbText
  0
TEXT
  5
35E
330
1F
100
AcDbEntity
  8
0
 62
     7
100
AcDbText
 10
23.04566676185394
 20
-123.0085167650083
 30
0.0
 40
3.499999999999999
  1
調整範囲
 50
90.0
 41
0.7692307692307694
  7
dcStyle0
 72
     5
 11
23.04566676185394
 21
-109.0085167650083
 31
0.0
100
AcDbText
  0
TEXT
  5
35F
330
1F
100
AcDbEntity
  8
0
 62
     7
100
AcDbText
 10
23.04566676185394
 20
-109.0544432641083
 30
0.0
 40
3.499999999999999
  1
3
 50
90.0
 41
0.7692307692307694
  7
dcStyle0
 72
     5
 11
23.04566676185394
 21
-107.3044432641083
 31
0.0
100
AcDbText
  0
LINE
  5
360
330
1F
100
AcDbEntity
  8
ZUWAKU
  6
Continuous
 62
     6
370
    50
100
AcDbLine
 10
87.46404494382043
 20
131.0977303481027
 30
0.0
 11
87.46404494382038
 21
111.0977303481027
 31
0.0
  0
LINE
  5
361
330
1F
100
AcDbEntity
  8
ZUWAKU
  6
Continuous
 62
     6
370
    50
100
AcDbLine
 10
103.8684880807775
 20
111.0977303481027
 30
0.0
 11
103.8684880807775
 21
131.0977303481027
 31
0.0
  0
LINE
  5
362
330
1F
100
AcDbEntity
  8
ZUWAKU
  6
Continuous
 62
     6
370
    50
100
AcDbLine
 10
87.46404494382043
 20
131.0977303481027
 30
0.0
 11
188.0
 21
131.0977303481027
 31
0.0
  0
LINE
  5
363
330
1F
100
AcDbEntity
  8
ZUWAKU
  6
Continuous
 62
     6
370
    50
100
AcDbLine
 10
87.46404494382043
 20
126.0977303481027
 30
0.0
 11
188.0
 21
126.0977303481027
 31
0.0
  0
LINE
  5
364
330
1F
100
AcDbEntity
  8
ZUWAKU
  6
Continuous
 62
     6
370
    50
100
AcDbLine
 10
87.46404494382043
 20
121.0977303481027
 30
0.0
 11
188.0
 21
121.0977303481027
 31
0.0
  0
LINE
  5
365
330
1F
100
AcDbEntity
  8
ZUWAKU
  6
Continuous
 62
     6
370
    50
100
AcDbLine
 10
87.46404494382043
 20
116.0977303481027
 30
0.0
 11
188.0
 21
116.0977303481027
 31
0.0
  0
LINE
  5
366
330
1F
100
AcDbEntity
  8
ZUWAKU
  6
Continuous
 62
     6
370
    50
100
AcDbLine
 10
87.46404494382043
 20
111.0977303481027
 30
0.0
 11
188.0
 21
111.0977303481027
 31
0.0
  0
TEXT
  5
368
330
1F
100
AcDbEntity
  8
ZUWAKU
 62
     2
100
AcDbText
 10
106.1834988554195
 20
126.8917406060535
 30
0.0
 40
3.0
  1
№658HSK-L
 41
1.00218878248974
  7
dcStyle1
 72
     5
 11
128.1834988554195
 21
126.8917406060535
 31
0.0
100
AcDbText
  0
TEXT
  5
369
330
1F
100
AcDbEntity
  8
ZUWAKU
 62
     2
100
AcDbText
 10
106.3834988554195
 20
121.8917406060535
 30
0.0
 40
3.0
  1
L型ストライク
 41
0.7884352309796906
  7
dcStyle1
 72
     5
 11
128.8834988554195
 21
121.8917406060535
 31
0.0
100
AcDbText
  0
TEXT
  5
36A
330
1F
100
AcDbEntity
  8
ZUWAKU
 62
     7
100
AcDbText
 10
90.08059899787432
 20
126.8917406060535
 30
0.0
 40
3.0
  1
品　　番
 41
0.6320622435020516
  7
dcStyle1
 72
     5
 11
101.1805989978743
 21
126.8917406060535
 31
0.0
100
AcDbText
  0
TEXT
  5
36B
330
1F
100
AcDbEntity
  8
ZUWAKU
 62
     7
100
AcDbText
 10
90.08059899787432
 20
121.8917406060535
 30
0.0
 40
3.0
  1
品　　名
 41
0.6320622435020516
  7
dcStyle1
 72
     5
 11
101.1805989978743
 21
121.8917406060535
 31
0.0
100
AcDbText
  0
TEXT
  5
36C
330
1F
100
AcDbEntity
  8
ZUWAKU
 62
     7
100
AcDbText
 10
90.0805989978743
 20
116.8917406060535
 30
0.0
 40
3.0
  1
材　　質
 41
0.7687243502051984
  7
dcStyle1
 72
     5
 11
103.5805989978743
 21
116.8917406060535
 31
0.0
100
AcDbText
  0
TEXT
  5
36D
330
1F
100
AcDbEntity
  8
ZUWAKU
 62
     7
100
AcDbText
 10
90.08059899787429
 20
111.8917406060535
 30
0.0
 40
3.0
  1
取付ねじ
 41
0.7687243502051984
  7
dcStyle1
 72
     5
 11
103.5805989978743
 21
111.8917406060535
 31
0.0
100
AcDbText
  0
TEXT
  5
36E
330
1F
100
AcDbEntity
  8
ZUWAKU
 62
     7
100
AcDbText
 10
106.4850421348313
 20
116.8917406060535
 30
0.0
 40
3.0
  1
SUS304
 41
0.8731190150478797
  7
dcStyle1
 72
     5
 11
117.9850421348313
 21
116.8917406060535
 31
0.0
100
AcDbText
  0
TEXT
  5
36F
330
1F
100
AcDbEntity
  8
ZUWAKU
 62
     7
100
AcDbText
 10
106.4850421348313
 20
111.8917406060535
 30
0.0
 40
3.0
  1
＋皿タッピンねじ3×14
 41
0.8026187219073675
  7
dcStyle1
 72
     5
 11
143.4850421348313
 21
111.8917406060535
 31
0.0
100
AcDbText
  0
TEXT
  5
370
330
1F
100
AcDbEntity
  8
ZUWAKU
 62
     7
100
AcDbText
 10
176.3416296766011
 20
-137.1082752060875
 30
0.0
 40
3.5
  1
201711
 41
0.7692307692307692
  7
dcStyle0
 72
     5
 11
186.8416296766011
 21
-137.1082752060875
 31
0.0
100
AcDbText
  0
CIRCLE
  5
371
330
1F
100
AcDbEntity
  8
ZUWAKU
  6
Continuous
 62
     7
370
    13
100
AcDbCircle
 10
107.6850421348313
 20
113.3917406060535
 30
0.0
 40
1.384097346342988
  0
INSERT
  5
372
330
1F
100
AcDbEntity
  8
ZUWAKU
  6
Continuous
100
AcDbBlockReference
  2
DC_GROUP_658HSK-L I型ストライク_1
 10
0.0
 20
0.0
 30
0.0
  0
INSERT
  5
373
330
1F
100
AcDbEntity
  8
0
  6
Continuous
100
AcDbBlockReference
  2
DC_GROUP_658HSK-L I型ストライク_2
 10
0.0
 20
0.0
 30
0.0
  0
DIMENSION
  5
374
330
1F
100
AcDbEntity
  8
0
  6
Continuous
370
    13
100
AcDbDimension
  2
*D12
 10
16.27043752065393
 20
-132.1887871853547
 30
0.0
 11
-20.97956247934607
 21
-132.1887871853547
 31
0.0
 70
   160
 71
     8
 42
-1.0
  3
dc_Rotated
100
AcDbAlignedDimension
 13
-58.22956247934607
 23
-132.1887871853547
 33
0.0
 14
16.27043752065393
 24
-81.7570490380083
 34
0.0
100
AcDbRotatedDimension
1001
ACAD
1000
DSTYLE
1002
{
1070
   274
1070
     4
1070
    41
1040
3.000001907348633
1070
    79
1070
     2
1070
   343
1005
157
1070
   344
1005
157
1070
   176
1070
     7
1070
   177
1070
     7
1070
   178
1070
     7
1070
   271
1070
     2
1070
    44
1040
0.0
1070
    42
1040
1.0
1070
   147
1040
1.0
1070
   173
1070
     1
1070
    75
1070
     1
1070
    77
1070
     3
1070
    73
1070
     0
1070
   172
1070
     1
1070
    74
1070
     0
1070
   283
1070
     0
1070
   340
1005
160
1070
   140
1040
3.499999999999999
1070
   284
1070
     8
1070
   288
1070
     1
1070
    78
1070
     8
1070
    90
1070
     1
1002
}
  0
DIMENSION
  5
376
330
1F
100
AcDbEntity
  8
0
  6
Continuous
370
    13
100
AcDbDimension
  2
*D13
 10
1.770437520653928
 20
-124.7118467659353
 30
0.0
 11
-28.22956247934607
 21
-124.7118467659353
 31
0.0
 70
   160
 71
     8
 42
-1.0
  3
dc_Rotated
100
AcDbAlignedDimension
 13
-58.22956247934607
 23
-124.7118467659353
 33
0.0
 14
1.770437520653928
 24
-96.7050041352083
 34
0.0
100
AcDbRotatedDimension
1001
ACAD
1000
DSTYLE
1002
{
1070
   274
1070
     4
1070
    41
1040
3.000001907348633
1070
    79
1070
     2
1070
   343
1005
157
1070
   344
1005
157
1070
   176
1070
     7
1070
   177
1070
     7
1070
   178
1070
     7
1070
   271
1070
     2
1070
    44
1040
0.0
1070
    42
1040
1.0
1070
   147
1040
1.0
1070
   173
1070
     1
1070
    75
1070
     1
1070
    77
1070
     3
1070
    73
1070
     0
1070
   172
1070
     1
1070
    74
1070
     0
1070
   283
1070
     0
1070
   340
1005
160
1070
   140
1040
3.499999999999999
1070
   284
1070
     8
1070
   288
1070
     1
1070
    78
1070
     8
1070
    90
1070
     1
1002
}
  0
DIMENSION
  5
377
330
1F
100
AcDbEntity
  8
0
  6
Continuous
370
    13
100
AcDbDimension
  2
*D14
 10
16.27043752065393
 20
-124.7118467659353
 30
0.0
 11
9.020437520653928
 21
-124.7118467659353
 31
0.0
 70
   160
 71
     8
 42
-1.0
  3
dc_Rotated
100
AcDbAlignedDimension
 13
1.770437520653928
 23
-96.7050041352083
 33
0.0
 14
16.27043752065393
 24
-135.1561886215985
 34
0.0
100
AcDbRotatedDimension
1001
ACAD
1000
DSTYLE
1002
{
1070
   274
1070
     4
1070
    41
1040
3.000001907348633
1070
    79
1070
     2
1070
   343
1005
157
1070
   344
1005
157
1070
   176
1070
     7
1070
   177
1070
     7
1070
   178
1070
     7
1070
   271
1070
     2
1070
    44
1040
1.0
1070
    42
1040
1.0
1070
   147
1040
1.0
1070
   173
1070
     1
1070
    77
1070
     3
1070
    73
1070
     0
1070
   172
1070
     1
1070
    74
1070
     0
1070
   283
1070
     0
1070
   340
1005
160
1070
   140
1040
3.499999999999999
1070
   284
1070
     8
1070
   288
1070
     1
1070
    78
1070
     8
1070
    90
1070
     1
1002
}
  0
INSERT
  5
378
330
1F
100
AcDbEntity
  8
0
  6
Continuous
100
AcDbBlockReference
  2
DC_GROUP_658HSK-L I型ストライク_12
 10
0.0
 20
0.0
 30
0.0
  0
INSERT
  5
379
330
1F
100
AcDbEntity
  8
0
  6
Continuous
100
AcDbBlockReference
  2
DC_GROUP_658HSK-L I型ストライク_13
 10
0.0
 20
0.0
 30
0.0
  0
DIMENSION
  5
37A
330
1F
100
AcDbEntity
  8
0
  6
Continuous
370
    13
100
AcDbDimension
  2
*D17
 10
26.77043794086389
 20
81.8636098401917
 30
0.0
 11
14.27043794086389
 21
81.8636098401917
 31
0.0
 70
   160
 71
     8
 42
-1.0
  3
dc_Rotated
100
AcDbAlignedDimension
 13
1.770437940863893
 23
65.86360983449173
 33
0.0
 14
26.77043794086389
 24
67.86360983449173
 34
0.0
100
AcDbRotatedDimension
1001
ACAD
1000
DSTYLE
1002
{
1070
   274
1070
     4
1070
    41
1040
3.000001907348633
1070
    79
1070
     2
1070
   343
1005
157
1070
   344
1005
157
1070
   176
1070
     7
1070
   177
1070
     7
1070
   178
1070
     7
1070
   271
1070
     2
1070
    44
1040
1.0
1070
    42
1040
1.0
1070
   147
1040
1.0
1070
   173
1070
     1
1070
    77
1070
     3
1070
    73
1070
     0
1070
   172
1070
     1
1070
    74
1070
     0
1070
   283
1070
     0
1070
   340
1005
160
1070
   140
1040
3.499999999999999
1070
   284
1070
     8
1070
   288
1070
     1
1070
    78
1070
     8
1070
    90
1070
     1
1002
}
  0
INSERT
  5
37B
330
1F
100
AcDbEntity
  8
0
  6
Continuous
100
AcDbBlockReference
  2
DC_GROUP_658HSK-L I型ストライク_14
 10
0.0
 20
0.0
 30
0.0
  0
INSERT
  5
37C
330
1F
100
AcDbEntity
  8
0
  6
Continuous
100
AcDbBlockReference
  2
DC_GROUP_658HSK-L I型ストライク_15
 10
0.0
 20
0.0
 30
0.0
  0
LINE
  5
37D
330
1F
100
AcDbEntity
  8
0
  6
Continuous
 62
     3
370
    35
100
AcDbLine
 10
125.4855348962539
 20
2.115070567291694
 30
0.0
 11
125.4855348962539
 21
-95.88492943270829
 31
0.0
  0
LINE
  5
37E
330
1F
100
AcDbEntity
  8
0
  6
Continuous
 62
     3
370
    35
100
AcDbLine
 10
123.4855348962539
 20
2.115070567291694
 30
0.0
 11
123.4855348962539
 21
-95.88492943270829
 31
0.0
  0
LINE
  5
37F
330
1F
100
AcDbEntity
  8
0
  6
Continuous
 62
     3
370
    35
100
AcDbLine
 10
123.4855348962539
 20
8.115070567291696
 30
0.0
 11
125.4855348962539
 21
8.115070567291696
 31
0.0
  0
LINE
  5
380
330
1F
100
AcDbEntity
  8
0
  6
Continuous
 62
     3
370
    35
100
AcDbLine
 10
125.4855348962539
 20
8.115070567291696
 30
0.0
 11
125.4855348962539
 21
2.115070567291694
 31
0.0
  0
LINE
  5
381
330
1F
100
AcDbEntity
  8
0
  6
Continuous
 62
     3
370
    35
100
AcDbLine
 10
123.4855348962539
 20
2.115070567291694
 30
0.0
 11
123.4855348962539
 21
8.115070567291696
 31
0.0
  0
LINE
  5
382
330
1F
100
AcDbEntity
  8
0
  6
Continuous
 62
     3
370
    35
100
AcDbLine
 10
125.4855348962539
 20
-101.8849294327083
 30
0.0
 11
123.4855348962539
 21
-101.8849294327083
 31
0.0
  0
LINE
  5
383
330
1F
100
AcDbEntity
  8
0
  6
Continuous
 62
     3
370
    35
100
AcDbLine
 10
125.4855348962539
 20
-95.88492943270829
 30
0.0
 11
125.4855348962539
 21
-101.8849294327083
 31
0.0
  0
LINE
  5
384
330
1F
100
AcDbEntity
  8
0
  6
Continuous
 62
     3
370
    35
100
AcDbLine
 10
123.4855348962539
 20
-101.8849294327083
 30
0.0
 11
123.4855348962539
 21
-95.88492943270829
 31
0.0
  0
ARC
  5
385
330
1F
100
AcDbEntity
  8
0
  6
Continuous
 62
     3
370
    35
100
AcDbCircle
 10
94.48553489625394
 20
3.115070567291694
 30
0.0
 40
5.0
100
AcDbArc
 50
90.0
 51
180.0
  0
ARC
  5
386
330
1F
100
AcDbEntity
  8
0
  6
Continuous
 62
     3
370
    35
100
AcDbCircle
 10
94.48553489625394
 20
-96.88492943270829
 30
0.0
 40
5.0
100
AcDbArc
 50
180.0
 51
270.0
  0
LINE
  5
387
330
1F
100
AcDbEntity
  8
0
  6
Continuous
 62
     3
370
    35
100
AcDbLine
 10
89.48553489625394
 20
3.115070567291694
 30
0.0
 11
89.48553489625394
 21
-96.88492943270829
 31
0.0
  0
LINE
  5
388
330
1F
100
AcDbEntity
  8
0
  6
Continuous
 62
     3
370
    35
100
AcDbLine
 10
94.48553489625394
 20
8.115070567291696
 30
0.0
 11
123.4855348962539
 21
8.115070567291696
 31
0.0
  0
LINE
  5
389
330
1F
100
AcDbEntity
  8
0
  6
Continuous
 62
     3
370
    35
100
AcDbLine
 10
94.48553489625394
 20
-101.8849294327083
 30
0.0
 11
123.4855348962539
 21
-101.8849294327083
 31
0.0
  0
ARC
  5
38A
330
1F
100
AcDbEntity
  8
0
  6
Continuous
 62
     3
370
    35
100
AcDbCircle
 10
98.98553489625394
 20
-34.2610258831083
 30
0.0
 40
5.0
100
AcDbArc
 50
160.1231278054002
 51
180.0
  0
ARC
  5
38B
330
1F
100
AcDbEntity
  8
0
  6
Continuous
 62
     3
370
    35
100
AcDbCircle
 10
113.2855348962539
 20
-19.0152744467083
 30
0.0
 40
5.0
100
AcDbArc
 50
180.0
 51
210.6385853382002
  0
LINE
  5
38C
330
1F
100
AcDbEntity
  8
0
  6
Continuous
 62
     3
370
    35
100
AcDbLine
 10
98.38766213015393
 20
-21.2088328284083
 30
0.0
 11
94.28340766245393
 21
-32.5610260370083
 31
0.0
  0
ARC
  5
38D
330
1F
100
AcDbEntity
  8
0
  6
Continuous
 62
     3
370
    35
100
AcDbCircle
 10
93.68553489625393
 20
-19.50883298240831
 30
0.0
 40
5.0
100
AcDbArc
 50
340.1231278054001
 51
0.0
  0
ARC
  5
38E
330
1F
100
AcDbEntity
  8
0
  6
Continuous
 62
     3
370
    35
100
AcDbCircle
 10
110.9855348962539
 20
-59.01527444670829
 30
0.0
 40
5.0
100
AcDbArc
 50
329.3614146617999
 51
0.0
  0
LINE
  5
38F
330
1F
100
AcDbEntity
  8
0
  6
Continuous
 62
     3
370
    35
100
AcDbLine
 10
108.2855351242539
 20
-7.384927614808307
 30
0.0
 11
98.68553466825395
 21
-7.384927614808307
 31
0.0
  0
LINE
  5
390
330
1F
100
AcDbEntity
  8
0
  6
Continuous
 62
     3
370
    35
100
AcDbLine
 10
108.2855348962539
 20
-19.0152744467083
 30
0.0
 11
108.2855351242539
 21
-7.384927614808307
 31
0.0
  0
LINE
  5
391
330
1F
100
AcDbEntity
  8
0
  6
Continuous
 62
     3
370
    35
100
AcDbLine
 10
98.68553466825395
 20
-86.38493125070829
 30
0.0
 11
108.2855351242539
 21
-86.38493125070829
 31
0.0
  0
ARC
  5
392
330
1F
100
AcDbEntity
  8
0
  6
Continuous
 62
     3
370
    35
100
AcDbCircle
 10
113.2855348962539
 20
-74.75458441880829
 30
0.0
 40
5.0
100
AcDbArc
 50
149.3614146617998
 51
180.0
  0
LINE
  5
393
330
1F
100
AcDbEntity
  8
0
  6
Continuous
 62
     3
370
    35
100
AcDbLine
 10
98.68553489625393
 20
-74.2610258831083
 30
0.0
 11
98.68553466825395
 21
-86.38493125070829
 31
0.0
  0
LINE
  5
394
330
1F
100
AcDbEntity
  8
0
  6
Continuous
 62
     3
370
    35
100
AcDbLine
 10
108.983539784354
 20
-72.2064796217083
 30
0.0
 11
115.2875300082539
 21
-61.5633792437083
 31
0.0
  0
ARC
  5
395
330
1F
100
AcDbEntity
  8
0
  6
Continuous
 62
     3
370
    35
100
AcDbCircle
 10
93.68553489625393
 20
-74.2610258831083
 30
0.0
 40
5.0
100
AcDbArc
 50
0.0
 51
19.87687219459998
  0
LINE
  5
396
330
1F
100
AcDbEntity
  8
0
  6
Continuous
 62
     3
370
    35
100
AcDbLine
 10
93.98553489625394
 20
-34.2610258831083
 30
0.0
 11
93.98553489625394
 21
-59.50883298240829
 31
0.0
  0
LINE
  5
397
330
1F
100
AcDbEntity
  8
0
  6
Continuous
 62
     3
370
    35
100
AcDbLine
 10
94.28340766245393
 20
-61.20883282840829
 30
0.0
 11
98.38766213015393
 21
-72.56102603700829
 31
0.0
  0
LINE
  5
398
330
1F
100
AcDbEntity
  8
0
  6
Continuous
 62
     3
370
    35
100
AcDbLine
 10
115.9855348962539
 20
-59.01527444670829
 30
0.0
 11
115.9855348962539
 21
-34.75458441880829
 31
0.0
  0
ARC
  5
399
330
1F
100
AcDbEntity
  8
0
  6
Continuous
 62
     3
370
    35
100
AcDbCircle
 10
98.98553489625394
 20
-59.50883298240829
 30
0.0
 40
5.0
100
AcDbArc
 50
180.0
 51
199.8768721945999
  0
ARC
  5
39A
330
1F
100
AcDbEntity
  8
0
  6
Continuous
 62
     3
370
    35
100
AcDbCircle
 10
110.9855348962539
 20
-34.75458441880829
 30
0.0
 40
5.0
100
AcDbArc
 50
0.0
 51
30.63858533820014
  0
LINE
  5
39B
330
1F
100
AcDbEntity
  8
0
  6
Continuous
 62
     3
370
    35
100
AcDbLine
 10
108.2855351242539
 20
-86.38493125070829
 30
0.0
 11
108.2855348962539
 21
-74.75458441880829
 31
0.0
  0
LINE
  5
39C
330
1F
100
AcDbEntity
  8
0
  6
Continuous
 62
     3
370
    35
100
AcDbLine
 10
115.2875300082539
 20
-32.2064796217083
 30
0.0
 11
108.983539784354
 21
-21.56337924370828
 31
0.0
  0
LINE
  5
39D
330
1F
100
AcDbEntity
  8
0
  6
Continuous
 62
     3
370
    35
100
AcDbLine
 10
98.68553466825395
 20
-7.384927614808307
 30
0.0
 11
98.68553489625393
 21
-19.50883298240831
 31
0.0
  0
POINT
  5
39E
330
1F
100
AcDbEntity
  8
0
  6
Continuous
 62
     3
100
AcDbPoint
 10
118.8532657868902
 20
-20.3849294327083
 30
0.0
  0
POINT
  5
39F
330
1F
100
AcDbEntity
  8
0
  6
Continuous
 62
     3
100
AcDbPoint
 10
118.8532657868902
 20
-73.38492943270829
 30
0.0
  0
POINT
  5
3A0
330
1F
100
AcDbEntity
  8
0
  6
Continuous
 62
     3
100
AcDbPoint
 10
126.5532657868902
 20
-33.3849294327083
 30
0.0
  0
POINT
  5
3A1
330
1F
100
AcDbEntity
  8
0
  6
Continuous
 62
     3
100
AcDbPoint
 10
126.5532657868902
 20
-60.38492943270829
 30
0.0
  0
LINE
  5
3A2
330
1F
100
AcDbEntity
  8
0
  6
Continuous
 62
     3
370
    35
100
AcDbLine
 10
1.770437520653928
 20
8.294995864791701
 30
0.0
 11
3.770437520653928
 21
8.294995864791701
 31
0.0
  0
LINE
  5
3A3
330
1F
100
AcDbEntity
  8
0
  6
Continuous
 62
     3
370
    35
100
AcDbLine
 10
3.770437520653928
 20
8.294995864791701
 30
0.0
 11
3.770437520653928
 21
3.2949958647917
 31
0.0
  0
LINE
  5
3A4
330
1F
100
AcDbEntity
  8
0
  6
Continuous
 62
     3
370
    35
100
AcDbLine
 10
1.770437520653928
 20
3.2949958647917
 30
0.0
 11
1.770437520653928
 21
8.294995864791701
 31
0.0
  0
ARC
  5
3A5
330
1F
100
AcDbEntity
  8
0
  6
Continuous
 62
     3
370
    35
100
AcDbCircle
 10
20.77043752065393
 20
2.2949958647917
 30
0.0
 40
6.0
100
AcDbArc
 50
0.0
 51
90.0
  0
ARC
  5
3A6
330
1F
100
AcDbEntity
  8
0
  6
Continuous
 62
     3
370
    35
100
AcDbCircle
 10
11.27043752065393
 20
-2.9550041352083
 30
0.0
 40
2.25
100
AcDbArc
 50
0.0
 51
180.0
  0
LINE
  5
3A7
330
1F
100
AcDbEntity
  8
0
  6
Continuous
 62
     3
370
    35
100
AcDbLine
 10
9.020437520653928
 20
-2.9550041352083
 30
0.0
 11
9.020437520653928
 21
-5.4550041352083
 31
0.0
  0
LINE
  5
3A8
330
1F
100
AcDbEntity
  8
0
  6
Continuous
 62
     3
370
    35
100
AcDbLine
 10
13.52043752065393
 20
-5.4550041352083
 30
0.0
 11
13.52043752065393
 21
-2.9550041352083
 31
0.0
  0
ARC
  5
3A9
330
1F
100
AcDbEntity
  8
0
  6
Continuous
 62
     3
370
    35
100
AcDbCircle
 10
11.27043752065393
 20
-5.4550041352083
 30
0.0
 40
2.25
100
AcDbArc
 50
180.0
 51
0.0
  0
LINE
  5
3AA
330
1F
100
AcDbEntity
  8
0
  6
Continuous
 62
     3
370
    35
100
AcDbLine
 10
3.770437520653928
 20
8.294995864791701
 30
0.0
 11
20.77043752065393
 21
8.294995864791701
 31
0.0
  0
LINE
  5
3AB
330
1F
100
AcDbEntity
  8
0
  6
Continuous
 62
     3
370
    35
100
AcDbLine
 10
3.770437520653928
 20
-96.7050041352083
 30
0.0
 11
3.770437520653928
 21
-101.7050041352083
 31
0.0
  0
LINE
  5
3AC
330
1F
100
AcDbEntity
  8
0
  6
Continuous
 62
     3
370
    35
100
AcDbLine
 10
3.770437520653928
 20
-101.7050041352083
 30
0.0
 11
1.770437520653928
 21
-101.7050041352083
 31
0.0
  0
LINE
  5
3AD
330
1F
100
AcDbEntity
  8
0
  6
Continuous
 62
     3
370
    35
100
AcDbLine
 10
1.770437520653928
 20
-101.7050041352083
 30
0.0
 11
1.770437520653928
 21
-96.7050041352083
 31
0.0
  0
ARC
  5
3AE
330
1F
100
AcDbEntity
  8
0
  6
Continuous
 62
     3
370
    35
100
AcDbCircle
 10
11.27043752065393
 20
-90.4550041352083
 30
0.0
 40
2.25
100
AcDbArc
 50
180.0
 51
0.0
  0
LINE
  5
3AF
330
1F
100
AcDbEntity
  8
0
  6
Continuous
 62
     3
370
    35
100
AcDbLine
 10
13.52043752065393
 20
-90.4550041352083
 30
0.0
 11
13.52043752065393
 21
-87.9550041352083
 31
0.0
  0
LINE
  5
3B0
330
1F
100
AcDbEntity
  8
0
  6
Continuous
 62
     3
370
    35
100
AcDbLine
 10
9.02043575787895
 20
-87.95500413520953
 30
0.0
 11
9.020437520653928
 21
-90.4550041352083
 31
0.0
  0
ARC
  5
3B1
330
1F
100
AcDbEntity
  8
0
  6
Continuous
 62
     3
370
    35
100
AcDbCircle
 10
11.27043752065393
 20
-87.9550041352083
 30
0.0
 40
2.25
100
AcDbArc
 50
0.0
 51
3.99740723969992
  0
LINE
  5
3B2
330
1F
100
AcDbEntity
  8
0
  6
Continuous
 62
     3
370
    35
100
AcDbLine
 10
3.770437520653928
 20
3.2949958647917
 30
0.0
 11
3.770437520653928
 21
-96.7050041352083
 31
0.0
  0
LINE
  5
3B3
330
1F
100
AcDbEntity
  8
0
  6
Continuous
 62
     3
370
    35
100
AcDbLine
 10
1.770437520653928
 20
3.2949958647917
 30
0.0
 11
1.770437520653928
 21
-96.7050041352083
 31
0.0
  0
LINE
  5
3B4
330
1F
100
AcDbEntity
  8
0
  6
Continuous
 62
     3
370
    35
100
AcDbLine
 10
3.770437520653928
 20
-101.7050041352083
 30
0.0
 11
20.77043752065393
 21
-101.7050041352083
 31
0.0
  0
ARC
  5
3B5
330
1F
100
AcDbEntity
  8
0
  6
Continuous
 62
     3
370
    35
100
AcDbCircle
 10
20.77043752065393
 20
-95.7050041352083
 30
0.0
 40
6.0
100
AcDbArc
 50
270.0
 51
0.0
  0
LINE
  5
3B6
330
1F
100
AcDbEntity
  8
0
  6
Continuous
 62
     3
370
    35
100
AcDbLine
 10
26.77043752065393
 20
2.2949958647917
 30
0.0
 11
26.77043752065393
 21
-95.7050041352083
 31
0.0
  0
LINE
  5
3B7
330
1F
100
AcDbEntity
  8
0
  6
Continuous
 62
     3
370
    35
100
AcDbLine
 10
3.770437940863893
 20
36.86360983449173
 30
0.0
 11
3.770437940863893
 21
65.86360983449173
 31
0.0
  0
LINE
  5
3B8
330
1F
100
AcDbEntity
  8
0
  6
Continuous
 62
     3
370
    35
100
AcDbLine
 10
1.770437940863893
 20
65.86360983449173
 30
0.0
 11
1.770437940863893
 21
36.86360983449173
 31
0.0
  0
ARC
  5
3B9
330
1F
100
AcDbEntity
  8
0
  6
Continuous
 62
     3
370
    35
100
AcDbCircle
 10
3.770437940863893
 20
65.86360983449173
 30
0.0
 40
2.0
100
AcDbArc
 50
90.0
 51
180.0
  0
LINE
  5
3BA
330
1F
100
AcDbEntity
  8
0
  6
Continuous
 62
     3
370
    35
100
AcDbLine
 10
3.770437940863893
 20
31.86360983449173
 30
0.0
 11
1.770437940863893
 21
31.86360983449173
 31
0.0
  0
LINE
  5
3BB
330
1F
100
AcDbEntity
  8
0
  6
Continuous
 62
     3
370
    35
100
AcDbLine
 10
3.770437940863893
 20
36.86360983449173
 30
0.0
 11
3.770437940863893
 21
31.86360983449173
 31
0.0
  0
LINE
  5
3BC
330
1F
100
AcDbEntity
  8
0
  6
Continuous
 62
     3
370
    35
100
AcDbLine
 10
1.770437940863893
 20
31.86360983449173
 30
0.0
 11
1.770437940863893
 21
36.86360983449173
 31
0.0
  0
LINE
  5
3BD
330
1F
100
AcDbEntity
  8
0
  6
Continuous
 62
     3
370
    35
100
AcDbLine
 10
26.77043794086389
 20
67.86360983449173
 30
0.0
 11
26.77043794086389
 21
65.86360983449173
 31
0.0
  0
LINE
  5
3BE
330
1F
100
AcDbEntity
  8
0
  6
Continuous
 62
     3
370
    35
100
AcDbLine
 10
26.77043794086389
 20
67.86360983449173
 30
0.0
 11
3.770437940863893
 21
67.86360983449173
 31
0.0
  0
LINE
  5
3BF
330
1F
100
AcDbEntity
  8
0
  6
Continuous
 62
     3
370
    35
100
AcDbLine
 10
3.770437940863893
 20
65.86360983449173
 30
0.0
 11
26.77043794086389
 21
65.86360983449173
 31
0.0
  0
ARC
  5
3C0
330
1F
100
AcDbEntity
  8
0
  6
DASHED2
 62
     3
370
    35
100
AcDbCircle
 10
11.27043752065393
 20
-87.9550041352083
 30
0.0
 40
2.25
100
AcDbArc
 50
3.997407239245767
 51
180.0
  0
ARC
  5
3C1
330
1F
100
AcDbEntity
  8
0
  6
Continuous
 62
     5
370
    13
100
AcDbCircle
 10
-10.44427077184608
 20
41.34686333169171
 30
0.0
 40
94.7110781328
100
AcDbArc
 50
289.6152392168
 51
289.8851982437
  0
LINE
  5
3C2
330
1F
100
AcDbEntity
  8
0
  6
Continuous
 62
     5
370
    13
100
AcDbLine
 10
21.35043752065394
 20
-47.8679612026083
 30
0.0
 11
21.35043905365393
 21
-47.6528694470083
 31
0.0
  0
LINE
  5
3C3
330
1F
100
AcDbEntity
  8
0
  6
Continuous
 62
     5
370
    13
100
AcDbLine
 10
21.77043573245393
 20
-47.48551078040829
 30
0.0
 11
21.35043905365393
 21
-47.6528694470083
 31
0.0
  0
LINE
  5
3C4
330
1F
100
AcDbEntity
  8
0
  6
Continuous
 62
     5
370
    13
100
AcDbLine
 10
21.77043752065393
 20
-47.71716485970829
 30
0.0
 11
21.77043573245393
 21
-47.48551078040829
 31
0.0
  0
ARC
  5
3C5
330
1F
100
AcDbEntity
  8
0
  6
Continuous
 62
     5
370
    13
100
AcDbCircle
 10
53.83296436875392
 20
40.9245813546917
 30
0.0
 40
94.2622130191
100
AcDbArc
 50
250.1144801226
 51
250.3857289261
  0
LINE
  5
3C6
330
1F
100
AcDbEntity
  8
0
  6
Continuous
 62
     5
370
    13
100
AcDbLine
 10
22.19043986185392
 20
-47.6528694470083
 30
0.0
 11
21.77043573245393
 21
-47.48551078040829
 31
0.0
  0
LINE
  5
3C7
330
1F
100
AcDbEntity
  8
0
  6
Continuous
 62
     5
370
    13
100
AcDbLine
 10
22.19043752065394
 20
-47.8679612026083
 30
0.0
 11
22.19043986185392
 21
-47.6528694470083
 31
0.0
  0
ARC
  5
3C8
330
1F
100
AcDbEntity
  8
0
  6
Continuous
 62
     5
370
    13
100
AcDbCircle
 10
-66.66621977864608
 20
-79.0583759923083
 30
0.0
 40
95.1200903875
100
AcDbArc
 50
19.6161067268
 51
19.8849078097
  0
LINE
  5
3C9
330
1F
100
AcDbEntity
  8
0
  6
Continuous
 62
     5
370
    13
100
AcDbLine
 10
22.93339458795393
 20
-47.1250041352083
 30
0.0
 11
22.71830604655392
 21
-47.1250032623083
 31
0.0
  0
LINE
  5
3CA
330
1F
100
AcDbEntity
  8
0
  6
Continuous
 62
     5
370
    13
100
AcDbLine
 10
22.55094365465393
 20
-46.7050028582083
 30
0.0
 11
22.71830604655392
 21
-47.1250032623083
 31
0.0
  0
LINE
  5
3CB
330
1F
100
AcDbEntity
  8
0
  6
Continuous
 62
     5
370
    13
100
AcDbLine
 10
22.78259824505392
 20
-46.7050041352083
 30
0.0
 11
22.55094365465393
 21
-46.7050028582083
 31
0.0
  0
ARC
  5
3CC
330
1F
100
AcDbEntity
  8
0
  6
Continuous
 62
     5
370
    13
100
AcDbCircle
 10
-66.23763440834608
 20
-14.50551187900831
 30
0.0
 40
94.6647180226
100
AcDbArc
 50
340.1144456727001
 51
340.3845397908
  0
LINE
  5
3CD
330
1F
100
AcDbEntity
  8
0
  6
Continuous
 62
     5
370
    13
100
AcDbLine
 10
22.71830604655392
 20
-46.28500245410829
 30
0.0
 11
22.55094365465393
 21
-46.7050028582083
 31
0.0
  0
LINE
  5
3CE
330
1F
100
AcDbEntity
  8
0
  6
Continuous
 62
     5
370
    13
100
AcDbLine
 10
22.93339458795393
 20
-46.2850041352083
 30
0.0
 11
22.71830604655392
 21
-46.28500245410829
 31
0.0
  0
ARC
  5
3CF
330
1F
100
AcDbEntity
  8
0
  6
Continuous
 62
     5
370
    13
100
AcDbCircle
 10
54.04687720395393
 20
-134.9281825985083
 30
0.0
 40
94.8931721095
100
AcDbArc
 50
109.6156226462
 51
109.885068632
  0
LINE
  5
3D0
330
1F
100
AcDbEntity
  8
0
  6
Continuous
 62
     5
370
    13
100
AcDbLine
 10
22.19043752065394
 20
-45.5420470678083
 30
0.0
 11
22.19043986185392
 21
-45.7571399947083
 31
0.0
  0
LINE
  5
3D1
330
1F
100
AcDbEntity
  8
0
  6
Continuous
 62
     5
370
    13
100
AcDbLine
 10
21.77043573245393
 20
-45.92449866130829
 30
0.0
 11
22.19043986185392
 21
-45.7571399947083
 31
0.0
  0
LINE
  5
3D2
330
1F
100
AcDbEntity
  8
0
  6
Continuous
 62
     5
370
    13
100
AcDbLine
 10
21.77043752065393
 20
-45.69284341070829
 30
0.0
 11
21.77043573245393
 21
-45.92449866130829
 31
0.0
  0
ARC
  5
3D3
330
1F
100
AcDbEntity
  8
0
  6
Continuous
 62
     5
370
    13
100
AcDbCircle
 10
-10.66024154784606
 20
-135.3561752042083
 30
0.0
 40
95.3481073468
100
AcDbArc
 50
70.1152530203
 51
70.38340918
  0
LINE
  5
3D4
330
1F
100
AcDbEntity
  8
0
  6
Continuous
 62
     5
370
    13
100
AcDbLine
 10
21.35043905365393
 20
-45.7571399947083
 30
0.0
 11
21.77043573245393
 21
-45.92449866130829
 31
0.0
  0
LINE
  5
3D5
330
1F
100
AcDbEntity
  8
0
  6
Continuous
 62
     5
370
    13
100
AcDbLine
 10
21.35043752065394
 20
-45.5420470678083
 30
0.0
 11
21.35043905365393
 21
-45.7571399947083
 31
0.0
  0
ARC
  5
3D6
330
1F
100
AcDbEntity
  8
0
  6
Continuous
 62
     5
370
    13
100
AcDbCircle
 10
111.4213355975539
 20
-79.4927354092083
 30
0.0
 40
96.4096783476
100
AcDbArc
 50
160.1177910358
 51
160.382995099
  0
LINE
  5
3D7
330
1F
100
AcDbEntity
  8
0
  6
Continuous
 62
     5
370
    13
100
AcDbLine
 10
20.75827679615392
 20
-46.7050041352083
 30
0.0
 11
20.98993526085394
 21
-46.7050028582083
 31
0.0
  0
LINE
  5
3D8
330
1F
100
AcDbEntity
  8
0
  6
Continuous
 62
     5
370
    13
100
AcDbLine
 10
20.82257286895393
 20
-47.1250032623083
 30
0.0
 11
20.98993526085394
 21
-46.7050028582083
 31
0.0
  0
LINE
  5
3D9
330
1F
100
AcDbEntity
  8
0
  6
Continuous
 62
     5
370
    13
100
AcDbLine
 10
20.60748045325394
 20
-47.1250041352083
 30
0.0
 11
20.82257286895393
 21
-47.1250032623083
 31
0.0
  0
ARC
  5
3DA
330
1F
100
AcDbEntity
  8
0
  6
Continuous
 62
     5
370
    13
100
AcDbCircle
 10
110.981090646954
 20
-14.07533098600828
 30
0.0
 40
95.9419202723
100
AcDbArc
 50
199.616358408
 51
199.8828554572
  0
LINE
  5
3DB
330
1F
100
AcDbEntity
  8
0
  6
Continuous
 62
     5
370
    13
100
AcDbLine
 10
20.60748045325394
 20
-46.2850041352083
 30
0.0
 11
20.82257286895393
 21
-46.28500245410829
 31
0.0
  0
LINE
  5
3DC
330
1F
100
AcDbEntity
  8
0
  6
Continuous
 62
     5
370
    13
100
AcDbLine
 10
20.98993526085394
 20
-46.7050028582083
 30
0.0
 11
20.82257286895393
 21
-46.28500245410829
 31
0.0
  0
ARC
  5
3DD
330
1F
100
AcDbEntity
  8
0
  6
Continuous
 62
     5
370
    13
100
AcDbCircle
 10
106.9036696853539
 20
35.98726724279172
 30
0.0
 40
119.2298551545
100
AcDbArc
 50
223.1901083795
 51
223.6325452518
  0
ARC
  5
3DE
330
1F
100
AcDbEntity
  8
0
  6
Continuous
 62
     5
370
    13
100
AcDbCircle
 10
107.0287705598539
 20
-129.5151666507083
 30
0.0
 40
119.4017509484
100
AcDbArc
 50
136.3679318964
 51
136.8097331133
  0
ARC
  5
3DF
330
1F
100
AcDbEntity
  8
0
  6
Continuous
 62
     5
370
    13
100
AcDbCircle
 10
21.77043752065393
 20
-46.7050041352083
 30
0.0
 40
2.1
100
AcDbArc
 50
211.2308935648997
 51
238.7691064351
  0
ARC
  5
3E0
330
1F
100
AcDbEntity
  8
0
  6
Continuous
 62
     5
370
    13
100
AcDbCircle
 10
-60.79597822234606
 20
38.2957058860917
 30
0.0
 40
119.0470967085
100
AcDbArc
 50
313.1896009733
 51
313.632715836
  0
ARC
  5
3E1
330
1F
100
AcDbEntity
  8
0
  6
Continuous
 62
     5
370
    13
100
AcDbCircle
 10
104.3368571396539
 20
38.2957058878917
 30
0.0
 40
119.047096711
100
AcDbArc
 50
226.367284164
 51
226.8103990267
  0
ARC
  5
3E2
330
1F
100
AcDbEntity
  8
0
  6
Continuous
 62
     5
370
    13
100
AcDbCircle
 10
21.77043752065393
 20
-46.7050041352083
 30
0.0
 40
2.1
100
AcDbArc
 50
301.2308935648999
 51
328.7691064351003
  0
ARC
  5
3E3
330
1F
100
AcDbEntity
  8
0
  6
Continuous
 62
     5
370
    13
100
AcDbCircle
 10
-63.22248973664608
 20
-129.2631237313083
 30
0.0
 40
119.0357409732
100
AcDbArc
 50
43.18925206969999
 51
43.632409275
  0
ARC
  5
3E4
330
1F
100
AcDbEntity
  8
0
  6
Continuous
 62
     5
370
    13
100
AcDbCircle
 10
-63.09815124524607
 20
35.73594554009171
 30
0.0
 40
118.8648946446
100
AcDbArc
 50
316.3671135769
 51
316.8109064376
  0
ARC
  5
3E5
330
1F
100
AcDbEntity
  8
0
  6
Continuous
 62
     5
370
    13
100
AcDbCircle
 10
21.77043752065393
 20
-46.7050041352083
 30
0.0
 40
2.1
100
AcDbArc
 50
31.23089356489972
 51
58.76910643510008
  0
ARC
  5
3E6
330
1F
100
AcDbEntity
  8
0
  6
Continuous
 62
     5
370
    13
100
AcDbCircle
 10
104.4601440207539
 20
-131.8365447799083
 30
0.0
 40
119.2268628942
100
AcDbArc
 50
133.189767235
 51
133.6322127506
  0
ARC
  5
3E7
330
1F
100
AcDbEntity
  8
0
  6
Continuous
 62
     5
370
    13
100
AcDbCircle
 10
-60.91926510354608
 20
-131.8365447781083
 30
0.0
 40
119.2268628917
100
AcDbArc
 50
46.3677872494
 51
46.810232765
  0
ARC
  5
3E8
330
1F
100
AcDbEntity
  8
0
  6
Continuous
 62
     5
370
    13
100
AcDbCircle
 10
21.77043752065393
 20
-46.7050041352083
 30
0.0
 40
2.1
100
AcDbArc
 50
121.2308935648999
 51
148.7691064351003
  0
LINE
  5
3E9
330
1F
100
AcDbEntity
  8
0
  6
Continuous
 62
     5
370
    13
100
AcDbLine
 10
22.19043986185392
 20
-45.7571399947083
 30
0.0
 11
22.26958133695393
 21
-45.6745282982083
 31
0.0
  0
LINE
  5
3EA
330
1F
100
AcDbEntity
  8
0
  6
Continuous
 62
     5
370
    13
100
AcDbLine
 10
21.27129370425394
 20
-45.6745282982083
 30
0.0
 11
21.35043905365393
 21
-45.7571399947083
 31
0.0
  0
LINE
  5
3EB
330
1F
100
AcDbEntity
  8
0
  6
Continuous
 62
     5
370
    13
100
AcDbLine
 10
20.68161242305393
 20
-44.9093260162083
 30
0.0
 11
21.27129370425394
 21
-45.6745282982083
 31
0.0
  0
LINE
  5
3EC
330
1F
100
AcDbEntity
  8
0
  6
Continuous
 62
     5
370
    13
100
AcDbLine
 10
22.80091335755392
 20
-46.20586031890829
 30
0.0
 11
22.71830604655392
 21
-46.28500245410829
 31
0.0
  0
LINE
  5
3ED
330
1F
100
AcDbEntity
  8
0
  6
Continuous
 62
     5
370
    13
100
AcDbLine
 10
23.56611563955394
 20
-45.61617903770829
 30
0.0
 11
22.80091335755392
 21
-46.20586031890829
 31
0.0
  0
LINE
  5
3EE
330
1F
100
AcDbEntity
  8
0
  6
Continuous
 62
     5
370
    13
100
AcDbLine
 10
21.35043905365393
 20
-47.6528694470083
 30
0.0
 11
21.27129370425394
 21
-47.7354799722083
 31
0.0
  0
LINE
  5
3EF
330
1F
100
AcDbEntity
  8
0
  6
Continuous
 62
     5
370
    13
100
AcDbLine
 10
22.26958133695393
 20
-47.7354799722083
 30
0.0
 11
22.19043986185392
 21
-47.6528694470083
 31
0.0
  0
LINE
  5
3F0
330
1F
100
AcDbEntity
  8
0
  6
Continuous
 62
     5
370
    13
100
AcDbLine
 10
22.85926261815393
 20
-48.5006822542083
 30
0.0
 11
22.26958133695393
 21
-47.7354799722083
 31
0.0
  0
LINE
  5
3F1
330
1F
100
AcDbEntity
  8
0
  6
Continuous
 62
     5
370
    13
100
AcDbLine
 10
22.71830604655392
 20
-47.1250032623083
 30
0.0
 11
22.80091335755392
 21
-47.20414795150829
 31
0.0
  0
LINE
  5
3F2
330
1F
100
AcDbEntity
  8
0
  6
Continuous
 62
     5
370
    13
100
AcDbLine
 10
20.73996168365392
 20
-47.20414795150829
 30
0.0
 11
20.82257286895393
 21
-47.1250032623083
 31
0.0
  0
LINE
  5
3F3
330
1F
100
AcDbEntity
  8
0
  6
Continuous
 62
     5
370
    13
100
AcDbLine
 10
19.97475940165393
 20
-47.79382923280829
 30
0.0
 11
20.73996168365392
 21
-47.20414795150829
 31
0.0
  0
LINE
  5
3F4
330
1F
100
AcDbEntity
  8
0
  6
Continuous
 62
     5
370
    13
100
AcDbLine
 10
20.82257286895393
 20
-46.28500245410829
 30
0.0
 11
20.73996168365392
 21
-46.20586031890829
 31
0.0
  0
ARC
  5
3F5
330
1F
100
AcDbEntity
  8
0
  6
Continuous
 62
     5
370
    13
100
AcDbCircle
 10
21.77043752065393
 20
-46.7050041352083
 30
0.0
 40
1.145
100
AcDbArc
 50
115.8447065282003
 51
154.1552934717997
  0
ARC
  5
3F6
330
1F
100
AcDbEntity
  8
0
  6
Continuous
 62
     5
370
    13
100
AcDbCircle
 10
21.77043752065393
 20
-46.7050041352083
 30
0.0
 40
1.145
100
AcDbArc
 50
25.84470652820032
 51
64.15529347179968
  0
ARC
  5
3F7
330
1F
100
AcDbEntity
  8
0
  6
Continuous
 62
     5
370
    13
100
AcDbCircle
 10
21.77043752065393
 20
-46.7050041352083
 30
0.0
 40
1.145
100
AcDbArc
 50
205.8447065282003
 51
244.1552934717997
  0
ARC
  5
3F8
330
1F
100
AcDbEntity
  8
0
  6
Continuous
 62
     5
370
    13
100
AcDbCircle
 10
21.77043752065393
 20
-46.7050041352083
 30
0.0
 40
1.145
100
AcDbArc
 50
295.8447065282003
 51
334.1552934717997
  0
CIRCLE
  5
3F9
330
1F
100
AcDbEntity
  8
0
  6
Continuous
 62
     5
370
    13
100
AcDbCircle
 10
21.77043752065393
 20
-46.7050041352083
 30
0.0
 40
3.5
  0
LINE
  5
3FA
330
1F
100
AcDbEntity
  8
0
  6
Continuous
 62
     5
370
    13
100
AcDbLine
 10
22.26957992895393
 20
-45.67452795700829
 30
0.0
 11
22.70542399275394
 21
-45.10922260480829
 31
0.0
  0
LINE
  5
3FB
330
1F
100
AcDbEntity
  8
0
  6
Continuous
 62
     5
370
    13
100
AcDbLine
 10
22.70542399275394
 20
-45.10922260480829
 30
0.0
 11
22.85926358085393
 21
-44.90932725270829
 31
0.0
  0
LINE
  5
3FC
330
1F
100
AcDbEntity
  8
0
  6
Continuous
 62
     5
370
    13
100
AcDbLine
 10
21.27129153595394
 20
-47.7354814847083
 30
0.0
 11
20.83546237335392
 21
-48.30076821050829
 31
0.0
  0
LINE
  5
3FD
330
1F
100
AcDbEntity
  8
0
  6
Continuous
 62
     5
370
    13
100
AcDbLine
 10
20.83546237335392
 20
-48.30076821050829
 30
0.0
 11
20.68161533465394
 21
-48.5006821890083
 31
0.0
  0
LINE
  5
3FE
330
1F
100
AcDbEntity
  8
0
  6
Continuous
 62
     5
370
    13
100
AcDbLine
 10
22.80091063365393
 20
-47.2041470547083
 30
0.0
 11
23.36620108475392
 21
-47.63997994260829
 31
0.0
  0
LINE
  5
3FF
330
1F
100
AcDbEntity
  8
0
  6
Continuous
 62
     5
370
    13
100
AcDbLine
 10
23.36620108475392
 20
-47.63997994260829
 30
0.0
 11
23.56611506325393
 21
-47.79383070660829
 31
0.0
  0
LINE
  5
400
330
1F
100
AcDbEntity
  8
0
  6
Continuous
 62
     5
370
    13
100
AcDbLine
 10
20.73996083125394
 20
-46.20585866170829
 30
0.0
 11
20.17467038025393
 21
-45.7700257738083
 31
0.0
  0
LINE
  5
401
330
1F
100
AcDbEntity
  8
0
  6
Continuous
 62
     5
370
    13
100
AcDbLine
 10
20.17467038025393
 20
-45.7700257738083
 30
0.0
 11
19.97475640165393
 21
-45.61617873510829
 31
0.0
  0
LINE
  5
402
330
1F
100
AcDbEntity
  8
0
  6
DIVIDE
 62
     5
370
    13
100
AcDbLine
 10
18.2704365103639
 20
65.86360908029171
 30
0.0
 11
18.36837407976389
 21
64.7441946026917
 31
0.0
  0
LINE
  5
403
330
1F
100
AcDbEntity
  8
0
  6
DIVIDE
 62
     5
370
    13
100
AcDbLine
 10
25.1725018019639
 20
64.7441946026917
 30
0.0
 11
25.27043579506388
 21
65.86360908029171
 31
0.0
  0
ARC
  5
404
330
1F
100
AcDbEntity
  8
0
  6
DIVIDE
 62
     5
370
    13
100
AcDbCircle
 10
23.8774486944639
 20
64.85749706829169
 30
0.0
 40
1.3
100
AcDbArc
 50
285.8808500083004
 51
354.9999999999997
  0
ARC
  5
405
330
1F
100
AcDbEntity
  8
0
  6
DIVIDE
 62
     5
370
    13
100
AcDbCircle
 10
19.66342718726388
 20
64.85749706829169
 30
0.0
 40
1.3
100
AcDbArc
 50
185.0000000000003
 51
254.1191499916996
  0
ARC
  5
406
330
1F
100
AcDbEntity
  8
0
  6
DIVIDE
 62
     5
370
    13
100
AcDbCircle
 10
21.77043794086389
 20
72.26360979259168
 30
0.0
 40
9.0
100
AcDbArc
 50
254.1191499917001
 51
263.5427239121999
  0
ARC
  5
407
330
1F
100
AcDbEntity
  8
0
  6
DIVIDE
 62
     5
370
    13
100
AcDbCircle
 10
21.77043794086389
 20
72.26360979259168
 30
0.0
 40
9.0
100
AcDbArc
 50
276.4572760877999
 51
285.8808500082999
  0
LINE
  5
408
330
1F
100
AcDbEntity
  8
0
  6
DIVIDE
 62
     5
370
    13
100
AcDbLine
 10
23.27043919256391
 20
78.242291894142
 30
0.0
 11
21.7704361526639
 21
81.8636098401917
 31
0.0
  0
LINE
  5
409
330
1F
100
AcDbEntity
  8
0
  6
DIVIDE
 62
     5
370
    13
100
AcDbLine
 10
21.13713680196388
 20
80.33468737179173
 30
0.0
 11
20.27044056346389
 21
78.24228184486846
 31
0.0
  0
LINE
  5
40A
330
1F
100
AcDbEntity
  8
0
  6
DIVIDE
 62
     5
370
    13
100
AcDbLine
 10
21.7704361526639
 20
81.8636098401917
 30
0.0
 11
21.1684068887639
 21
80.4101794483917
 31
0.0
  0
LINE
  5
40B
330
1F
100
AcDbEntity
  8
0
  6
DIVIDE
 62
     5
370
    13
100
AcDbLine
 10
23.27043919256391
 20
67.86360983449173
 30
0.0
 11
23.27043919256391
 21
78.242291894142
 31
0.0
  0
LINE
  5
40C
330
1F
100
AcDbEntity
  8
0
  6
DIVIDE
 62
     5
370
    13
100
AcDbLine
 10
20.27044056346389
 20
78.24228184486846
 30
0.0
 11
20.27044056346389
 21
67.86360983449173
 31
0.0
  0
ARC
  5
40D
330
1F
100
AcDbEntity
  8
0
  6
DIVIDE
 62
     5
370
    13
100
AcDbCircle
 10
21.39228655826388
 20
67.7027049914917
 30
0.0
 40
4.4239211862
100
AcDbArc
 50
251.3114422049001
 51
259.7816402833001
  0
ARC
  5
40E
330
1F
100
AcDbEntity
  8
0
  6
DIVIDE
 62
     5
370
    13
100
AcDbCircle
 10
20.87832741986389
 20
64.37820199499173
 30
0.0
 40
1.0642892532
100
AcDbArc
 50
255.2569683131007
 51
263.5232073000004
  0
ARC
  5
40F
330
1F
100
AcDbEntity
  8
0
  6
DIVIDE
 62
     5
370
    13
100
AcDbCircle
 10
22.66258788746389
 20
64.37804386509173
 30
0.0
 40
1.0641272822
100
AcDbArc
 50
276.4754525330993
 51
284.7433472451992
  0
ARC
  5
410
330
1F
100
AcDbEntity
  8
0
  6
DIVIDE
 62
     5
370
    13
100
AcDbCircle
 10
22.14868633356391
 20
67.70227889599168
 30
0.0
 40
4.4234853268
100
AcDbArc
 50
280.2181515785999
 51
288.6890920687001
  0
LINE
  5
411
330
1F
100
AcDbEntity
  8
0
  6
DIVIDE
 62
     5
370
    13
100
AcDbLine
 10
23.56611605986389
 20
63.5120385050917
 30
0.0
 11
22.8592630383639
 21
63.5120385050917
 31
0.0
  0
ARC
  5
412
330
1F
100
AcDbEntity
  8
0
  6
DIVIDE
 62
     5
370
    13
100
AcDbCircle
 10
21.33829322526389
 20
68.2966390883917
 30
0.0
 40
5.0205336078
100
AcDbArc
 50
279.7722587249
 51
287.6348748543999
  0
ARC
  5
413
330
1F
100
AcDbEntity
  8
0
  6
DIVIDE
 62
     5
370
    13
100
AcDbCircle
 10
21.44167037986389
 20
71.3457542381917
 30
0.0
 40
8.0317803289
100
AcDbArc
 50
272.3459500499
 51
275.3492178399999
  0
ARC
  5
414
330
1F
100
AcDbEntity
  8
0
  6
DIVIDE
 62
     5
370
    13
100
AcDbCircle
 10
22.09914732916391
 20
71.34474496219171
 30
0.0
 40
8.030769664
100
AcDbArc
 50
264.6505516151999
 51
267.6541443954999
  0
ARC
  5
415
330
1F
100
AcDbEntity
  8
0
  6
DIVIDE
 62
     5
370
    13
100
AcDbCircle
 10
22.2025865307639
 20
68.29663908849169
 30
0.0
 40
5.0205336079
100
AcDbArc
 50
252.3651251456999
 51
260.227741275
  0
LINE
  5
416
330
1F
100
AcDbEntity
  8
0
  6
DIVIDE
 62
     5
370
    13
100
AcDbLine
 10
20.6816128432639
 20
63.5120385050917
 30
0.0
 11
19.97475982186389
 21
63.5120385050917
 31
0.0
  0
LINE
  5
417
330
1F
100
AcDbEntity
  8
0
  6
DIVIDE
 62
     5
370
    13
100
AcDbLine
 10
20.60748087346391
 20
63.34895159049169
 30
0.0
 11
20.62390355756389
 21
63.51203820579171
 31
0.0
  0
LINE
  5
418
330
1F
100
AcDbEntity
  8
0
  6
DIVIDE
 62
     5
370
    13
100
AcDbLine
 10
22.93339500826391
 20
63.34895159049169
 30
0.0
 11
22.91697619846391
 21
63.51203820579171
 31
0.0
  0
LINE
  5
419
330
1F
100
AcDbEntity
  8
0
  6
DIVIDE
 62
     5
370
    13
100
AcDbLine
 10
20.75827721636389
 20
63.32070586439168
 30
0.0
 11
20.7746660559639
 21
63.4834968941917
 31
0.0
  0
LINE
  5
41A
330
1F
100
AcDbEntity
  8
0
  6
DIVIDE
 62
     5
370
    13
100
AcDbLine
 10
22.7825986653639
 20
63.32070586439168
 30
0.0
 11
22.76620624946388
 21
63.4834968941917
 31
0.0
  0
VIEWPORT
  5
AE
102
{ACAD_XDICTIONARY
360
422
102
}
330
1B
100
AcDbEntity
 67
     1
  8
0
100
AcDbViewport
 10
-0.0000000000000568
 20
0.0
 30
0.0
 40
1130.4
 41
829.8136179113842
 68
     1
 69
     1
 12
-0.0000000000000568
 22
0.0
 13
0.0
 23
0.0
 14
0.5
 24
0.5
 15
0.0
 25
0.0
 16
0.0
 26
0.0
 36
1.0
 17
0.0
 27
0.0
 37
0.0
 42
50.0
 43
0.0
 44
0.0
 45
829.8136179113842
 50
0.0
 51
0.0
 72
   100
 90
   557152
  1

281
     0
 71
     1
 74
     0
110
0.0
120
0.0
130
0.0
111
1.0
121
0.0
131
0.0
112
0.0
122
1.0
132
0.0
 79
     0
146
0.0
  0
ENDSEC
  0
SECTION
  2
OBJECTS
  0
DICTIONARY
  5
C
330
0
100
AcDbDictionary
281
     1
  3
ACAD_GROUP
350
D
  3
ACAD_LAYOUT
350
1A
  3
ACAD_MATERIAL
350
43
  3
ACAD_MLEADERSTYLE
350
41D
  3
ACAD_MLINESTYLE
350
17
  3
ACAD_PLOTSETTINGS
350
19
  3
ACAD_PLOTSTYLENAME
350
E
  3
ACAD_SCALELIST
350
47
  3
ACAD_VISUALSTYLE
350
2A
  3
AcDbVariableDictionary
350
41B
  0
DICTIONARY
  5
424
330
8
100
AcDbDictionary
280
     1
281
     1
  3
ACAD_XREC_ROUNDTRIP
360
425
  0
DICTIONARY
  5
422
330
AE
100
AcDbDictionary
280
     1
281
     1
  3
ACAD_XREC_ROUNDTRIP
360
423
  0
DICTIONARY
  5
D
102
{ACAD_REACTORS
330
C
102
}
330
C
100
AcDbDictionary
281
     1
  0
DICTIONARY
  5
1A
102
{ACAD_REACTORS
330
C
102
}
330
C
100
AcDbDictionary
281
     1
  3
Layout1
350
1E
  3
Layout2
350
26
  3
Model
350
22
  0
DICTIONARY
  5
43
102
{ACAD_REACTORS
330
C
102
}
330
C
100
AcDbDictionary
281
     1
  3
ByBlock
350
45
  3
ByLayer
350
44
  3
Global
350
46
  0
DICTIONARY
  5
41D
102
{ACAD_REACTORS
330
C
102
}
330
C
100
AcDbDictionary
281
     1
  0
DICTIONARY
  5
17
102
{ACAD_REACTORS
330
C
102
}
330
C
100
AcDbDictionary
281
     1
  3
Standard
350
18
  0
DICTIONARY
  5
19
102
{ACAD_REACTORS
330
C
102
}
330
C
100
AcDbDictionary
281
     1
  0
ACDBDICTIONARYWDFLT
  5
E
102
{ACAD_REACTORS
330
C
102
}
330
C
100
AcDbDictionary
281
     1
  3
Normal
350
F
100
AcDbDictionaryWithDefault
340
F
  0
DICTIONARY
  5
47
102
{ACAD_REACTORS
330
C
102
}
330
C
100
AcDbDictionary
281
     1
  3
A0
350
48
  3
A1
350
49
  3
A2
350
4A
  3
A3
350
4B
  3
A4
350
4C
  3
A5
350
4D
  3
A6
350
4E
  3
A7
350
4F
  3
A8
350
50
  3
A9
350
51
  3
B0
350
52
  3
B1
350
53
  3
B2
350
54
  3
B3
350
55
  3
B4
350
56
  3
B5
350
57
  3
B6
350
58
  3
B7
350
59
  3
B8
350
5A
  3
B9
350
5B
  3
C0
350
5C
  3
C1
350
5D
  3
C2
350
5E
  3
C3
350
5F
  3
C4
350
60
  3
C5
350
61
  3
C6
350
62
  3
C7
350
63
  3
C8
350
64
  3
C9
350
65
  3
D0
350
66
  3
D1
350
67
  3
D2
350
68
  0
DICTIONARY
  5
2A
102
{ACAD_REACTORS
330
C
102
}
330
C
100
AcDbDictionary
281
     1
  3
2dWireframe
350
2F
  3
Basic
350
32
  3
Brighten
350
36
  3
ColorChange
350
3A
  3
Conceptual
350
34
  3
Dim
350
35
  3
EdgeColorOff
350
3D
  3
Facepattern
350
39
  3
Flat
350
2B
  3
FlatWithEdges
350
2C
  3
Gouraud
350
2D
  3
GouraudWithEdges
350
2E
  3
Hidden
350
31
  3
JitterOff
350
3B
  3
Linepattern
350
38
  3
OverhangOff
350
3C
  3
Realistic
350
33
  3
Shaded
350
42
  3
Shaded with edges
350
41
  3
Shades of Gray
350
3E
  3
Sketchy
350
3F
  3
Thicken
350
37
  3
Wireframe
350
30
  3
X-Ray
350
40
  0
DICTIONARY
  5
41B
102
{ACAD_REACTORS
330
C
102
}
330
C
100
AcDbDictionary
281
     1
  3
CANNOSCALE
350
427
  3
DIMASSOC
350
420
  3
HIDETEXT
350
421
  3
MSLTSCALE
350
428
  0
XRECORD
  5
425
102
{ACAD_REACTORS
330
424
102
}
330
424
100
AcDbXrecord
280
     1
102
VTR_0.000_0.000_1.000_1.000_GRIDDISPLAY
 70
     3
102
VTR_0.000_0.000_1.000_1.000_GRIDMAJOR
 70
     5
102
VTR_0.000_0.000_1.000_1.000_DEFAULTLIGHTING
280
     1
102
VTR_0.000_0.000_1.000_1.000_DEFAULTLIGHTINGTYPE
 70
     1
102
VTR_0.000_0.000_1.000_1.000_BRIGHTNESS
141
0.0
102
VTR_0.000_0.000_1.000_1.000_CONTRAST
142
0.0
  0
XRECORD
  5
423
102
{ACAD_REACTORS
330
422
102
}
330
422
100
AcDbXrecord
280
     1
102
GRIDDISPLAY
 70
     2
102
GRIDMAJOR
 70
     5
102
DEFAULTLIGHTING
280
     1
102
DEFAULTLIGHTINGTYPE
 70
     1
102
BRIGHTNESS
141
0.0
102
CONTRAST
142
0.0
  0
LAYOUT
  5
1E
102
{ACAD_REACTORS
330
1A
102
}
330
1A
100
AcDbPlotSettings
  1

  2
none_device
  4

  6

 40
0.0
 41
0.0
 42
0.0
 43
0.0
 44
0.0
 45
0.0
 46
0.0
 47
0.0
 48
0.0
 49
0.0
140
0.0
141
0.0
142
1.0
143
1.0
 70
   688
 72
     0
 73
     0
 74
     5
  7

 75
    16
147
1.0
148
0.0
149
0.0
100
AcDbLayout
  1
Layout1
 70
     0
 71
     1
 10
0.0
 20
0.0
 11
12.0
 21
9.0
 12
0.0
 22
0.0
 32
0.0
 14
1.000000000000000E+20
 24
1.000000000000000E+20
 34
1.000000000000000E+20
 15
-1.000000000000000E+20
 25
-1.000000000000000E+20
 35
-1.000000000000000E+20
146
0.0
 13
0.0
 23
0.0
 33
0.0
 16
1.0
 26
0.0
 36
0.0
 17
0.0
 27
1.0
 37
0.0
 76
     0
330
1B
331
AE
  0
LAYOUT
  5
26
102
{ACAD_REACTORS
330
1A
102
}
330
1A
100
AcDbPlotSettings
  1

  2
none_device
  4

  6

 40
0.0
 41
0.0
 42
0.0
 43
0.0
 44
0.0
 45
0.0
 46
0.0
 47
0.0
 48
0.0
 49
0.0
140
0.0
141
0.0
142
1.0
143
1.0
 70
   688
 72
     0
 73
     0
 74
     5
  7

 75
    16
147
1.0
148
0.0
149
0.0
100
AcDbLayout
  1
Layout2
 70
     1
 71
     2
 10
0.0
 20
0.0
 11
0.0
 21
0.0
 12
0.0
 22
0.0
 32
0.0
 14
0.0
 24
0.0
 34
0.0
 15
0.0
 25
0.0
 35
0.0
146
0.0
 13
0.0
 23
0.0
 33
0.0
 16
1.0
 26
0.0
 36
0.0
 17
0.0
 27
1.0
 37
0.0
 76
     0
330
23
  0
LAYOUT
  5
22
102
{ACAD_REACTORS
330
1A
102
}
330
1A
100
AcDbPlotSettings
  1

  2
none_device
  4
Letter_(8.50_x_11.00_Inches)
  6

 40
6.35
 41
6.35
 42
6.35000508
 43
6.35000508
 44
215.9
 45
279.4
 46
0.0
 47
0.0
 48
0.0
 49
0.0
140
0.0
141
0.0
142
1.0
143
1.0
 70
  1712
 72
     0
 73
     0
 74
     0
  7

 75
     0
147
1.0
148
0.0
149
0.0
100
AcDbLayout
  1
Model
 70
     1
 71
     0
 10
-210.0
 20
-148.5
 11
210.0
 21
148.5
 12
0.0
 22
0.0
 32
0.0
 14
-565.2000000000002
 24
-414.9068089556921
 34
0.0
 15
565.2
 25
414.9068089556921
 35
0.0
146
0.0
 13
0.0
 23
0.0
 33
0.0
 16
1.0
 26
0.0
 36
0.0
 17
0.0
 27
1.0
 37
0.0
 76
     0
330
1F
331
29
  0
MATERIAL
  5
45
102
{ACAD_REACTORS
330
43
102
}
102
{ACAD_XDICTIONARY
360
45B
102
}
330
43
100
AcDbMaterial
  1
ByBlock
  0
MATERIAL
  5
44
102
{ACAD_REACTORS
330
43
102
}
102
{ACAD_XDICTIONARY
360
459
102
}
330
43
100
AcDbMaterial
  1
ByLayer
  0
MATERIAL
  5
46
102
{ACAD_REACTORS
330
43
102
}
102
{ACAD_XDICTIONARY
360
45D
102
}
330
43
100
AcDbMaterial
  1
Global
  0
MLINESTYLE
  5
18
102
{ACAD_REACTORS
330
17
102
}
330
17
100
AcDbMlineStyle
  2
Standard
 70
     0
  3

 62
   256
 51
90.0
 52
90.0
 71
     2
 49
0.5
 62
   256
  6
BYLAYER
 49
-0.5
 62
   256
  6
BYLAYER
  0
ACDBPLACEHOLDER
  5
F
102
{ACAD_REACTORS
330
E
102
}
330
E
  0
SCALE
  5
48
102
{ACAD_REACTORS
330
47
102
}
330
47
100
AcDbScale
 70
     0
300
1:1
140
1.0
141
1.0
290
     1
  0
SCALE
  5
49
102
{ACAD_REACTORS
330
47
102
}
330
47
100
AcDbScale
 70
     0
300
1:2
140
1.0
141
2.0
290
     0
  0
SCALE
  5
4A
102
{ACAD_REACTORS
330
47
102
}
330
47
100
AcDbScale
 70
     0
300
1:4
140
1.0
141
4.0
290
     0
  0
SCALE
  5
4B
102
{ACAD_REACTORS
330
47
102
}
330
47
100
AcDbScale
 70
     0
300
1:5
140
1.0
141
5.0
290
     0
  0
SCALE
  5
4C
102
{ACAD_REACTORS
330
47
102
}
330
47
100
AcDbScale
 70
     0
300
1:8
140
1.0
141
8.0
290
     0
  0
SCALE
  5
4D
102
{ACAD_REACTORS
330
47
102
}
330
47
100
AcDbScale
 70
     0
300
1:10
140
1.0
141
10.0
290
     0
  0
SCALE
  5
4E
102
{ACAD_REACTORS
330
47
102
}
330
47
100
AcDbScale
 70
     0
300
1:16
140
1.0
141
16.0
290
     0
  0
SCALE
  5
4F
102
{ACAD_REACTORS
330
47
102
}
330
47
100
AcDbScale
 70
     0
300
1:20
140
1.0
141
20.0
290
     0
  0
SCALE
  5
50
102
{ACAD_REACTORS
330
47
102
}
330
47
100
AcDbScale
 70
     0
300
1:30
140
1.0
141
30.0
290
     0
  0
SCALE
  5
51
102
{ACAD_REACTORS
330
47
102
}
330
47
100
AcDbScale
 70
     0
300
1:40
140
1.0
141
40.0
290
     0
  0
SCALE
  5
52
102
{ACAD_REACTORS
330
47
102
}
330
47
100
AcDbScale
 70
     0
300
1:50
140
1.0
141
50.0
290
     0
  0
SCALE
  5
53
102
{ACAD_REACTORS
330
47
102
}
330
47
100
AcDbScale
 70
     0
300
1:100
140
1.0
141
100.0
290
     0
  0
SCALE
  5
54
102
{ACAD_REACTORS
330
47
102
}
330
47
100
AcDbScale
 70
     0
300
2:1
140
2.0
141
1.0
290
     0
  0
SCALE
  5
55
102
{ACAD_REACTORS
330
47
102
}
330
47
100
AcDbScale
 70
     0
300
4:1
140
4.0
141
1.0
290
     0
  0
SCALE
  5
56
102
{ACAD_REACTORS
330
47
102
}
330
47
100
AcDbScale
 70
     0
300
8:1
140
8.0
141
1.0
290
     0
  0
SCALE
  5
57
102
{ACAD_REACTORS
330
47
102
}
330
47
100
AcDbScale
 70
     0
300
10:1
140
10.0
141
1.0
290
     0
  0
SCALE
  5
58
102
{ACAD_REACTORS
330
47
102
}
330
47
100
AcDbScale
 70
     0
300
100:1
140
100.0
141
1.0
290
     0
  0
SCALE
  5
59
102
{ACAD_REACTORS
330
47
102
}
330
47
100
AcDbScale
 70
     0
300
1/128" = 1'-0"
140
0.0078125
141
12.0
290
     0
  0
SCALE
  5
5A
102
{ACAD_REACTORS
330
47
102
}
330
47
100
AcDbScale
 70
     0
300
1/64" = 1'-0"
140
0.015625
141
12.0
290
     0
  0
SCALE
  5
5B
102
{ACAD_REACTORS
330
47
102
}
330
47
100
AcDbScale
 70
     0
300
1/32" = 1'-0"
140
0.03125
141
12.0
290
     0
  0
SCALE
  5
5C
102
{ACAD_REACTORS
330
47
102
}
330
47
100
AcDbScale
 70
     0
300
1/16" = 1'-0"
140
0.0625
141
12.0
290
     0
  0
SCALE
  5
5D
102
{ACAD_REACTORS
330
47
102
}
330
47
100
AcDbScale
 70
     0
300
3/32" = 1'-0"
140
0.09375
141
12.0
290
     0
  0
SCALE
  5
5E
102
{ACAD_REACTORS
330
47
102
}
330
47
100
AcDbScale
 70
     0
300
1/8" = 1'-0"
140
0.125
141
12.0
290
     0
  0
SCALE
  5
5F
102
{ACAD_REACTORS
330
47
102
}
330
47
100
AcDbScale
 70
     0
300
3/16" = 1'-0"
140
0.1875
141
12.0
290
     0
  0
SCALE
  5
60
102
{ACAD_REACTORS
330
47
102
}
330
47
100
AcDbScale
 70
     0
300
1/4" = 1'-0"
140
0.25
141
12.0
290
     0
  0
SCALE
  5
61
102
{ACAD_REACTORS
330
47
102
}
330
47
100
AcDbScale
 70
     0
300
3/8" = 1'-0"
140
0.375
141
12.0
290
     0
  0
SCALE
  5
62
102
{ACAD_REACTORS
330
47
102
}
330
47
100
AcDbScale
 70
     0
300
1/2" = 1'-0"
140
0.5
141
12.0
290
     0
  0
SCALE
  5
63
102
{ACAD_REACTORS
330
47
102
}
330
47
100
AcDbScale
 70
     0
300
3/4" = 1'-0"
140
0.75
141
12.0
290
     0
  0
SCALE
  5
64
102
{ACAD_REACTORS
330
47
102
}
330
47
100
AcDbScale
 70
     0
300
1" = 1'-0"
140
1.0
141
12.0
290
     0
  0
SCALE
  5
65
102
{ACAD_REACTORS
330
47
102
}
330
47
100
AcDbScale
 70
     0
300
1-1/2" = 1'-0"
140
1.5
141
12.0
290
     0
  0
SCALE
  5
66
102
{ACAD_REACTORS
330
47
102
}
330
47
100
AcDbScale
 70
     0
300
3" = 1'-0"
140
3.0
141
12.0
290
     0
  0
SCALE
  5
67
102
{ACAD_REACTORS
330
47
102
}
330
47
100
AcDbScale
 70
     0
300
6" = 1'-0"
140
6.0
141
12.0
290
     0
  0
SCALE
  5
68
102
{ACAD_REACTORS
330
47
102
}
330
47
100
AcDbScale
 70
     0
300
1'-0" = 1'-0"
140
12.0
141
12.0
290
     0
  0
VISUALSTYLE
  5
2F
102
{ACAD_REACTORS
330
2A
102
}
102
{ACAD_XDICTIONARY
360
431
102
}
330
2A
100
AcDbVisualStyle
  2
2dWireframe
 70
     4
 71
     0
 72
     2
 73
     0
 90
        0
 40
0.6
 41
30.0
 62
     5
 63
     7
 74
     1
 91
        4
 64
     7
 65
   257
 75
     1
175
     1
 42
1.0
 92
        0
 66
   257
 43
1.0
 76
     1
 77
     6
 78
     2
 67
     7
 79
     5
170
     0
171
     0
290
     0
174
     0
 93
        1
 44
0.0
173
     0
291
     0
 45
0.0
1001
ACAD
1000
AcDbSavedByObjectVersion
1070
     0
  0
VISUALSTYLE
  5
32
102
{ACAD_REACTORS
330
2A
102
}
102
{ACAD_XDICTIONARY
360
437
102
}
330
2A
100
AcDbVisualStyle
  2
Basic
 70
     7
 71
     1
 72
     0
 73
     1
 90
        0
 40
0.6
 41
30.0
 62
     5
 63
     7
 74
     0
 91
        4
 64
     7
 65
   257
 75
     1
175
     1
 42
1.0
 92
        8
 66
     7
 43
1.0
 76
     1
 77
     6
 78
     2
 67
     7
 79
     5
170
     0
171
     0
290
     0
174
     0
 93
        1
 44
0.0
173
     0
291
     1
 45
0.0
1001
ACAD
1000
AcDbSavedByObjectVersion
1070
     0
  0
VISUALSTYLE
  5
36
102
{ACAD_REACTORS
330
2A
102
}
102
{ACAD_XDICTIONARY
360
43F
102
}
330
2A
100
AcDbVisualStyle
  2
Brighten
 70
    12
 71
     2
 72
     2
 73
     0
 90
        0
 40
0.6
 41
30.0
 62
     5
 63
     7
 74
     1
 91
        4
 64
     7
 65
   257
 75
     1
175
     1
 42
1.0
 92
        8
 66
     7
 43
1.0
 76
     1
 77
     6
 78
     2
 67
     7
 79
     5
170
     0
171
     0
290
     0
174
     0
 93
        1
 44
50.0
173
     0
291
     1
 45
0.0
1001
ACAD
1000
AcDbSavedByObjectVersion
1070
     0
  0
VISUALSTYLE
  5
3A
102
{ACAD_REACTORS
330
2A
102
}
102
{ACAD_XDICTIONARY
360
447
102
}
330
2A
100
AcDbVisualStyle
  2
ColorChange
 70
    16
 71
     2
 72
     2
 73
     3
 90
        0
 40
0.6
 41
30.0
 62
     5
 63
     8
 74
     1
 91
        4
 64
     7
 65
   257
 75
     1
175
     1
 42
1.0
 92
        8
 66
     8
 43
1.0
 76
     1
 77
     6
 78
     2
 67
     7
 79
     5
170
     0
171
     0
290
     0
174
     0
 93
        1
 44
0.0
173
     0
291
     1
 45
0.0
1001
ACAD
1000
AcDbSavedByObjectVersion
1070
     0
  0
VISUALSTYLE
  5
34
102
{ACAD_REACTORS
330
2A
102
}
102
{ACAD_XDICTIONARY
360
43B
102
}
330
2A
100
AcDbVisualStyle
  2
Conceptual
 70
     9
 71
     3
 72
     2
 73
     0
 90
        0
 40
0.6
 41
30.0
 62
     5
 63
     7
 74
     2
 91
        2
 64
     7
 65
   257
 75
     1
175
     1
 42
179.0
 92
        8
 66
     7
 43
1.0
 76
     1
 77
     6
 78
     2
 67
     7
 79
     3
170
     0
171
     0
290
     0
174
     0
 93
        1
 44
0.0
173
     0
291
     0
 45
0.0
1001
ACAD
1000
AcDbSavedByObjectVersion
1070
     0
  0
VISUALSTYLE
  5
35
102
{ACAD_REACTORS
330
2A
102
}
102
{ACAD_XDICTIONARY
360
43D
102
}
330
2A
100
AcDbVisualStyle
  2
Dim
 70
    11
 71
     2
 72
     2
 73
     0
 90
        0
 40
0.6
 41
30.0
 62
     5
 63
     7
 74
     1
 91
        4
 64
     7
 65
   257
 75
     1
175
     1
 42
1.0
 92
        8
 66
     7
 43
1.0
 76
     1
 77
     6
 78
     2
 67
     7
 79
     5
170
     0
171
     0
290
     0
174
     0
 93
        1
 44
-50.0
173
     0
291
     1
 45
0.0
1001
ACAD
1000
AcDbSavedByObjectVersion
1070
     0
  0
VISUALSTYLE
  5
3D
102
{ACAD_REACTORS
330
2A
102
}
102
{ACAD_XDICTIONARY
360
44D
102
}
330
2A
100
AcDbVisualStyle
  2
EdgeColorOff
 70
    22
 71
     2
 72
     2
 73
     0
 90
        0
 40
0.6
 41
30.0
 62
     5
 63
     7
 74
     1
 91
        4
 64
     7
 65
   257
 75
     1
175
     1
 42
1.0
 92
        8
 66
     7
 43
1.0
 76
     1
 77
     6
 78
     2
 67
     7
 79
     5
170
     0
171
     0
290
     0
174
     0
 93
        1
 44
0.0
173
     0
291
     1
 45
0.0
1001
ACAD
1000
AcDbSavedByObjectVersion
1070
     0
  0
VISUALSTYLE
  5
39
102
{ACAD_REACTORS
330
2A
102
}
102
{ACAD_XDICTIONARY
360
445
102
}
330
2A
100
AcDbVisualStyle
  2
Facepattern
 70
    15
 71
     2
 72
     2
 73
     0
 90
        0
 40
0.6
 41
30.0
 62
     5
 63
     7
 74
     1
 91
        4
 64
     7
 65
   257
 75
     1
175
     1
 42
1.0
 92
        8
 66
     7
 43
1.0
 76
     1
 77
     6
 78
     2
 67
     7
 79
     5
170
     0
171
     0
290
     0
174
     0
 93
        1
 44
0.0
173
     0
291
     1
 45
0.0
1001
ACAD
1000
AcDbSavedByObjectVersion
1070
     0
  0
VISUALSTYLE
  5
2B
102
{ACAD_REACTORS
330
2A
102
}
102
{ACAD_XDICTIONARY
360
429
102
}
330
2A
100
AcDbVisualStyle
  2
Flat
 70
     0
 71
     2
 72
     1
 73
     1
 90
        2
 40
0.6
 41
30.0
 62
     5
 63
     7
 74
     0
 91
        0
 64
     7
 65
   257
 75
     1
175
     1
 42
1.0
 92
        8
 66
     7
 43
1.0
 76
     1
 77
     6
 78
     2
 67
     7
 79
     5
170
     0
171
     0
290
     0
174
     0
 93
       13
 44
0.0
173
     0
291
     1
 45
0.0
1001
ACAD
1000
AcDbSavedByObjectVersion
1070
     0
  0
VISUALSTYLE
  5
2C
102
{ACAD_REACTORS
330
2A
102
}
102
{ACAD_XDICTIONARY
360
42B
102
}
330
2A
100
AcDbVisualStyle
  2
FlatWithEdges
 70
     1
 71
     2
 72
     1
 73
     1
 90
        2
 40
0.6
 41
30.0
 62
     5
 63
     7
 74
     1
 91
        0
 64
     7
 65
   257
 75
     1
175
     1
 42
1.0
 92
        0
 66
   257
 43
1.0
 76
     1
 77
     6
 78
     2
 67
     7
 79
     5
170
     0
171
     0
290
     0
174
     0
 93
       13
 44
0.0
173
     0
291
     1
 45
0.0
1001
ACAD
1000
AcDbSavedByObjectVersion
1070
     0
  0
VISUALSTYLE
  5
2D
102
{ACAD_REACTORS
330
2A
102
}
102
{ACAD_XDICTIONARY
360
42D
102
}
330
2A
100
AcDbVisualStyle
  2
Gouraud
 70
     2
 71
     2
 72
     2
 73
     1
 90
        2
 40
0.6
 41
30.0
 62
     5
 63
     7
 74
     0
 91
        0
 64
     7
 65
   257
 75
     1
175
     1
 42
1.0
 92
        0
 66
     7
 43
1.0
 76
     1
 77
     6
 78
     2
 67
     7
 79
     5
170
     0
171
     0
290
     0
174
     0
 93
       13
 44
0.0
173
     0
291
     1
 45
0.0
1001
ACAD
1000
AcDbSavedByObjectVersion
1070
     0
  0
VISUALSTYLE
  5
2E
102
{ACAD_REACTORS
330
2A
102
}
102
{ACAD_XDICTIONARY
360
42F
102
}
330
2A
100
AcDbVisualStyle
  2
GouraudWithEdges
 70
     3
 71
     2
 72
     2
 73
     1
 90
        2
 40
0.6
 41
30.0
 62
     5
 63
     7
 74
     1
 91
        0
 64
     7
 65
   257
 75
     1
175
     1
 42
1.0
 92
        0
 66
   257
 43
1.0
 76
     1
 77
     6
 78
     2
 67
     7
 79
     5
170
     0
171
     0
290
     0
174
     0
 93
       13
 44
0.0
173
     0
291
     1
 45
0.0
1001
ACAD
1000
AcDbSavedByObjectVersion
1070
     0
  0
VISUALSTYLE
  5
31
102
{ACAD_REACTORS
330
2A
102
}
102
{ACAD_XDICTIONARY
360
435
102
}
330
2A
100
AcDbVisualStyle
  2
Hidden
 70
     6
 71
     1
 72
     2
 73
     2
 90
        0
 40
0.6
 41
30.0
 62
     5
 63
     7
 74
     2
 91
        2
 64
     7
 65
   257
 75
     2
175
     1
 42
40.0
 92
        0
 66
   257
 43
1.0
 76
     1
 77
     6
 78
     2
 67
     7
 79
     3
170
     0
171
     0
290
     0
174
     0
 93
        1
 44
0.0
173
     0
291
     0
 45
0.0
1001
ACAD
1000
AcDbSavedByObjectVersion
1070
     0
  0
VISUALSTYLE
  5
3B
102
{ACAD_REACTORS
330
2A
102
}
102
{ACAD_XDICTIONARY
360
449
102
}
330
2A
100
AcDbVisualStyle
  2
JitterOff
 70
    20
 71
     2
 72
     2
 73
     0
 90
        0
 40
0.6
 41
30.0
 62
     5
 63
     7
 74
     1
 91
        4
 64
     7
 65
   257
 75
     1
175
     1
 42
1.0
 92
       10
 66
     7
 43
1.0
 76
     1
 77
     6
 78
     2
 67
     7
 79
     5
170
     0
171
     0
290
     0
174
     0
 93
        1
 44
0.0
173
     0
291
     1
 45
0.0
1001
ACAD
1000
AcDbSavedByObjectVersion
1070
     0
  0
VISUALSTYLE
  5
38
102
{ACAD_REACTORS
330
2A
102
}
102
{ACAD_XDICTIONARY
360
443
102
}
330
2A
100
AcDbVisualStyle
  2
Linepattern
 70
    14
 71
     2
 72
     2
 73
     0
 90
        0
 40
0.6
 41
30.0
 62
     5
 63
     7
 74
     1
 91
        4
 64
     7
 65
   257
 75
     7
175
     7
 42
1.0
 92
        8
 66
     7
 43
1.0
 76
     1
 77
     6
 78
     2
 67
     7
 79
     5
170
     0
171
     0
290
     0
174
     0
 93
        1
 44
0.0
173
     0
291
     1
 45
0.0
1001
ACAD
1000
AcDbSavedByObjectVersion
1070
     0
  0
VISUALSTYLE
  5
3C
102
{ACAD_REACTORS
330
2A
102
}
102
{ACAD_XDICTIONARY
360
44B
102
}
330
2A
100
AcDbVisualStyle
  2
OverhangOff
 70
    21
 71
     2
 72
     2
 73
     0
 90
        0
 40
0.6
 41
30.0
 62
     5
 63
     7
 74
     1
 91
        4
 64
     7
 65
   257
 75
     1
175
     1
 42
1.0
 92
        9
 66
     7
 43
1.0
 76
     1
 77
     6
 78
     2
 67
     7
 79
     5
170
     0
171
     0
290
     0
174
     0
 93
        1
 44
0.0
173
     0
291
     1
 45
0.0
1001
ACAD
1000
AcDbSavedByObjectVersion
1070
     0
  0
VISUALSTYLE
  5
33
102
{ACAD_REACTORS
330
2A
102
}
102
{ACAD_XDICTIONARY
360
439
102
}
330
2A
100
AcDbVisualStyle
  2
Realistic
 70
     8
 71
     2
 72
     3
 73
     0
 90
        2
 40
0.6
 41
30.0
 62
     5
 63
     7
 74
     0
 91
        0
 64
     7
 65
   257
 75
     1
175
     1
 42
1.0
 92
        8
 66
   257
 43
1.0
 76
     1
 77
     6
 78
     2
 67
     7
 79
     3
170
     0
171
     0
290
     0
174
     0
 93
       13
 44
0.0
173
     0
291
     0
 45
0.0
1001
ACAD
1000
AcDbSavedByObjectVersion
1070
     0
  0
VISUALSTYLE
  5
42
102
{ACAD_REACTORS
330
2A
102
}
102
{ACAD_XDICTIONARY
360
457
102
}
330
2A
100
AcDbVisualStyle
  2
Shaded
 70
    27
 71
     2
 72
     2
 73
     1
 90
        2
 40
0.6
 41
30.0
 62
     5
 63
     7
 74
     0
 91
        4
 64
     7
 65
   257
 75
     1
175
     1
 42
1.0
 92
        8
 66
   257
 43
1.0
 76
     1
 77
     6
 78
     2
 67
     8
 79
     3
170
     0
171
     0
290
     0
174
     0
 93
        5
 44
0.0
173
     0
291
     0
 45
0.0
1001
ACAD
1000
AcDbSavedByObjectVersion
1070
     0
  0
VISUALSTYLE
  5
41
102
{ACAD_REACTORS
330
2A
102
}
102
{ACAD_XDICTIONARY
360
455
102
}
330
2A
100
AcDbVisualStyle
  2
Shaded with edges
 70
    26
 71
     2
 72
     2
 73
     1
 90
        2
 40
0.6
 41
30.0
 62
     5
 63
     7
 74
     1
 91
       10
 64
     7
 65
   257
 75
     2
175
     1
 42
1.0
 92
        8
 66
   257
 43
1.0
 76
     1
 77
     6
 78
     2
 67
     7
 79
     3
170
     0
171
     0
290
     0
174
     0
 93
        5
 44
0.0
173
     0
291
     0
 45
0.0
1001
ACAD
1000
AcDbSavedByObjectVersion
1070
     0
  0
VISUALSTYLE
  5
3E
102
{ACAD_REACTORS
330
2A
102
}
102
{ACAD_XDICTIONARY
360
44F
102
}
330
2A
100
AcDbVisualStyle
  2
Shades of Gray
 70
    23
 71
     2
 72
     2
 73
     3
 90
        0
 40
0.6
 41
30.0
 62
     5
 63
     7
 74
     2
 91
        2
 64
     7
 65
     7
 75
     1
175
     1
 42
40.0
 92
        8
 66
     7
 43
1.0
 76
     1
 77
     6
 78
     2
 67
     7
 79
     3
170
     0
171
     0
290
     0
174
     0
 93
        1
 44
0.0
173
     0
291
     0
 45
0.0
1001
ACAD
1000
AcDbSavedByObjectVersion
1070
     0
  0
VISUALSTYLE
  5
3F
102
{ACAD_REACTORS
330
2A
102
}
102
{ACAD_XDICTIONARY
360
451
102
}
330
2A
100
AcDbVisualStyle
  2
Sketchy
 70
    24
 71
     1
 72
     2
 73
     2
 90
        0
 40
0.6
 41
30.0
 62
     5
 63
     7
 74
     2
 91
        2
 64
     7
 65
     7
 75
     1
175
     1
 42
40.0
 92
       11
 66
     7
 43
1.0
 76
     1
 77
     6
 78
     2
 67
     7
 79
     6
170
     0
171
     0
290
     0
174
     0
 93
        1
 44
0.0
173
     0
291
     0
 45
0.0
1001
ACAD
1000
AcDbSavedByObjectVersion
1070
     0
  0
VISUALSTYLE
  5
37
102
{ACAD_REACTORS
330
2A
102
}
102
{ACAD_XDICTIONARY
360
441
102
}
330
2A
100
AcDbVisualStyle
  2
Thicken
 70
    13
 71
     2
 72
     2
 73
     0
 90
        0
 40
0.6
 41
30.0
 62
     5
 63
     7
 74
     1
 91
        4
 64
     7
 65
   257
 75
     1
175
     1
 42
1.0
 92
       12
 66
     7
 43
1.0
 76
     1
 77
     6
 78
     2
 67
     7
 79
     5
170
     0
171
     0
290
     0
174
     0
 93
        1
 44
0.0
173
     0
291
     1
 45
0.0
1001
ACAD
1000
AcDbSavedByObjectVersion
1070
     0
  0
VISUALSTYLE
  5
30
102
{ACAD_REACTORS
330
2A
102
}
102
{ACAD_XDICTIONARY
360
433
102
}
330
2A
100
AcDbVisualStyle
  2
Wireframe
 70
     5
 71
     0
 72
     2
 73
     0
 90
        0
 40
0.6
 41
30.0
 62
     5
 63
     7
 74
     1
 91
        4
 64
     7
 65
   257
 75
     1
175
     1
 42
1.0
 92
        0
 66
   257
 43
1.0
 76
     1
 77
     6
 78
     2
 67
     7
 79
     3
170
     0
171
     0
290
     0
174
     0
 93
        1
 44
0.0
173
     0
291
     0
 45
0.0
1001
ACAD
1000
AcDbSavedByObjectVersion
1070
     0
  0
VISUALSTYLE
  5
40
102
{ACAD_REACTORS
330
2A
102
}
102
{ACAD_XDICTIONARY
360
453
102
}
330
2A
100
AcDbVisualStyle
  2
X-Ray
 70
    25
 71
     2
 72
     2
 73
     1
 90
        1
 40
0.5
 41
30.0
 62
     5
 63
     7
 74
     1
 91
        0
 64
     7
 65
   257
 75
     1
175
     1
 42
1.0
 92
        8
 66
     7
 43
1.0
 76
     1
 77
     6
 78
     2
 67
     7
 79
     3
170
     0
171
     0
290
     0
174
     0
 93
       13
 44
0.0
173
     0
291
     0
 45
0.0
1001
ACAD
1000
AcDbSavedByObjectVersion
1070
     0
  0
DICTIONARYVAR
  5
427
102
{ACAD_REACTORS
330
41B
102
}
330
41B
100
DictionaryVariables
280
     0
  1
1:1
  0
DICTIONARYVAR
  5
420
102
{ACAD_REACTORS
330
41B
102
}
330
41B
100
DictionaryVariables
280
     0
  1
2
  0
DICTIONARYVAR
  5
421
102
{ACAD_REACTORS
330
41B
102
}
330
41B
100
DictionaryVariables
280
     0
  1
1
  0
DICTIONARYVAR
  5
428
102
{ACAD_REACTORS
330
41B
102
}
330
41B
100
DictionaryVariables
280
     0
  1
1
  0
DICTIONARY
  5
45B
330
45
100
AcDbDictionary
280
     1
281
     1
  3
ACAD_XREC_ROUNDTRIP
360
45C
  0
DICTIONARY
  5
459
330
44
100
AcDbDictionary
280
     1
281
     1
  3
ACAD_XREC_ROUNDTRIP
360
45A
  0
DICTIONARY
  5
45D
330
46
100
AcDbDictionary
280
     1
281
     1
  3
ACAD_XREC_ROUNDTRIP
360
45E
  0
DICTIONARY
  5
431
330
2F
100
AcDbDictionary
280
     1
281
     1
  3
ACAD_XREC_ROUNDTRIP
360
432
  0
DICTIONARY
  5
437
330
32
100
AcDbDictionary
280
     1
281
     1
  3
ACAD_XREC_ROUNDTRIP
360
438
  0
DICTIONARY
  5
43F
330
36
100
AcDbDictionary
280
     1
281
     1
  3
ACAD_XREC_ROUNDTRIP
360
440
  0
DICTIONARY
  5
447
330
3A
100
AcDbDictionary
280
     1
281
     1
  3
ACAD_XREC_ROUNDTRIP
360
448
  0
DICTIONARY
  5
43B
330
34
100
AcDbDictionary
280
     1
281
     1
  3
ACAD_XREC_ROUNDTRIP
360
43C
  0
DICTIONARY
  5
43D
330
35
100
AcDbDictionary
280
     1
281
     1
  3
ACAD_XREC_ROUNDTRIP
360
43E
  0
DICTIONARY
  5
44D
330
3D
100
AcDbDictionary
280
     1
281
     1
  3
ACAD_XREC_ROUNDTRIP
360
44E
  0
DICTIONARY
  5
445
330
39
100
AcDbDictionary
280
     1
281
     1
  3
ACAD_XREC_ROUNDTRIP
360
446
  0
DICTIONARY
  5
429
330
2B
100
AcDbDictionary
280
     1
281
     1
  3
ACAD_XREC_ROUNDTRIP
360
42A
  0
DICTIONARY
  5
42B
330
2C
100
AcDbDictionary
280
     1
281
     1
  3
ACAD_XREC_ROUNDTRIP
360
42C
  0
DICTIONARY
  5
42D
330
2D
100
AcDbDictionary
280
     1
281
     1
  3
ACAD_XREC_ROUNDTRIP
360
42E
  0
DICTIONARY
  5
42F
330
2E
100
AcDbDictionary
280
     1
281
     1
  3
ACAD_XREC_ROUNDTRIP
360
430
  0
DICTIONARY
  5
435
330
31
100
AcDbDictionary
280
     1
281
     1
  3
ACAD_XREC_ROUNDTRIP
360
436
  0
DICTIONARY
  5
449
330
3B
100
AcDbDictionary
280
     1
281
     1
  3
ACAD_XREC_ROUNDTRIP
360
44A
  0
DICTIONARY
  5
443
330
38
100
AcDbDictionary
280
     1
281
     1
  3
ACAD_XREC_ROUNDTRIP
360
444
  0
DICTIONARY
  5
44B
330
3C
100
AcDbDictionary
280
     1
281
     1
  3
ACAD_XREC_ROUNDTRIP
360
44C
  0
DICTIONARY
  5
439
330
33
100
AcDbDictionary
280
     1
281
     1
  3
ACAD_XREC_ROUNDTRIP
360
43A
  0
DICTIONARY
  5
457
330
42
100
AcDbDictionary
280
     1
281
     1
  3
ACAD_XREC_ROUNDTRIP
360
458
  0
DICTIONARY
  5
455
330
41
100
AcDbDictionary
280
     1
281
     1
  3
ACAD_XREC_ROUNDTRIP
360
456
  0
DICTIONARY
  5
44F
330
3E
100
AcDbDictionary
280
     1
281
     1
  3
ACAD_XREC_ROUNDTRIP
360
450
  0
DICTIONARY
  5
451
330
3F
100
AcDbDictionary
280
     1
281
     1
  3
ACAD_XREC_ROUNDTRIP
360
452
  0
DICTIONARY
  5
441
330
37
100
AcDbDictionary
280
     1
281
     1
  3
ACAD_XREC_ROUNDTRIP
360
442
  0
DICTIONARY
  5
433
330
30
100
AcDbDictionary
280
     1
281
     1
  3
ACAD_XREC_ROUNDTRIP
360
434
  0
DICTIONARY
  5
453
330
40
100
AcDbDictionary
280
     1
281
     1
  3
ACAD_XREC_ROUNDTRIP
360
454
  0
XRECORD
  5
45C
102
{ACAD_REACTORS
330
45B
102
}
330
45B
100
AcDbXrecord
280
     1
102
MATERIAL
148
0.0
149
0.0
149
0.0
 93
        0
 94
      127
282
     0
 72
     1
 77
     1
171
     1
175
     1
179
     1
273
     0
  0
XRECORD
  5
45A
102
{ACAD_REACTORS
330
459
102
}
330
459
100
AcDbXrecord
280
     1
102
MATERIAL
148
0.0
149
0.0
149
0.0
 93
        0
 94
      127
282
     0
 72
     1
 77
     1
171
     1
175
     1
179
     1
273
     0
  0
XRECORD
  5
45E
102
{ACAD_REACTORS
330
45D
102
}
330
45D
100
AcDbXrecord
280
     1
102
MATERIAL
148
0.0
149
0.0
149
0.0
 93
        0
 94
      127
282
     0
 72
     1
 77
     1
171
     1
175
     1
179
     1
273
     0
  0
XRECORD
  5
432
102
{ACAD_REACTORS
330
431
102
}
330
431
100
AcDbXrecord
280
     1
102
RTVSPropertyOp0
 70
     1
102
RTVSPropertyOp1
 70
     1
102
RTVSPropertyOp2
 70
     1
102
RTVSPropertyOp3
 70
     1
102
RTVSPropertyOp4
 70
     1
102
RTVSPropertyOp5
 70
     1
102
RTVSPropertyOp6
 70
     1
102
RTVSPropertyOp7
 70
     1
102
RTVSPropertyOp8
 70
     1
102
RTVSPropertyOp9
 70
     1
102
RTVSPropertyOp10
 70
     1
102
RTVSPropertyOp11
 70
     1
102
RTVSPropertyOp12
 70
     1
102
RTVSPropertyOp13
 70
     1
102
RTVSPropertyOp14
 70
     1
102
RTVSPropertyOp15
 70
     1
102
RTVSPropertyOp16
 70
     1
102
RTVSPropertyOp17
 70
     1
102
RTVSPropertyOp18
 70
     1
102
RTVSPropertyOp19
 70
     1
102
RTVSPropertyOp20
 70
     1
102
RTVSPropertyOp21
 70
     1
102
RTVSPropertyOp22
 70
     1
102
RTVSPropertyOp23
 70
     1
102
RTVSPropertyOp24
 70
     1
102
RTVSPropertyOp25
 70
     1
102
RTVSPropertyOp26
 70
     1
102
RTVSPropertyOp27
 70
     1
102
RTVSPropertyOp28
 70
     1
102
RTVSPropertyOp29
 70
     1
102
RTVSPropertyOp30
 70
     1
102
RTVSPropertyOp31
 70
     1
102
RTVSPropertyOp32
 70
     1
102
RTVSPropertyOp33
 70
     1
102
RTVSPropertyOp34
 70
     1
102
RTVSPropertyOp35
 70
     1
102
RTVSPropertyOp36
 70
     1
102
RTVSPropertyOp37
 70
     1
102
RTVSPropertyOp38
 70
     1
102
RTVSPropertyOp39
 70
     1
102
RTVSPropertyOp40
 70
     1
102
RTVSPropertyOp41
 70
     1
102
RTVSPropertyOp42
 70
     1
102
RTVSPropertyOp43
 70
     1
102
RTVSPropertyOp44
 70
     1
102
RTVSPropertyOp45
 70
     1
102
RTVSPropertyOp46
 70
     1
102
RTVSPropertyOp47
 70
     1
102
RTVSPropertyOp48
 70
     1
102
RTVSPropertyOp49
 70
     1
102
RTVSPropertyOp50
 70
     1
102
RTVSPropertyOp51
 70
     0
102
RTVSPropertyOp52
 70
     0
102
RTVSPropertyOp53
 70
     1
102
RTVSPropertyOp54
 70
     1
102
RTVSPropertyOp55
 70
     1
102
RTVSPropertyOp56
 70
     1
102
RTVSPropertyOp57
 70
     1
102
RTVSPost2010Prop28
280
     1
102
RTVSPost2010PropOp28
 70
     1
102
RTVSPost2010Prop29
280
     1
102
RTVSPost2010PropOp29
 70
     1
102
RTVSPost2010Prop30
280
     0
102
RTVSPost2010PropOp30
 70
     1
102
RTVSPost2010Prop31
280
     0
102
RTVSPost2010PropOp31
 70
     1
102
RTVSPost2010Prop32
280
     0
102
RTVSPost2010PropOp32
 70
     1
102
RTVSPost2010Prop33
280
     0
102
RTVSPost2010PropOp33
 70
     1
102
RTVSPost2010Prop34
280
     0
102
RTVSPost2010PropOp34
 70
     1
102
RTVSPost2010Prop35
280
     0
102
RTVSPost2010PropOp35
 70
     1
102
RTVSPost2010Prop36
280
     0
102
RTVSPost2010PropOp36
 70
     1
102
RTVSPost2010Prop37
 90
       50
102
RTVSPost2010PropOp37
 70
     1
102
RTVSPost2010Prop38
140
0.0
102
RTVSPost2010PropOp38
 70
     1
102
RTVSPost2010Prop39
140
1.0
102
RTVSPost2010PropOp39
 70
     1
102
RTVSPost2010Prop40
 90
        0
102
RTVSPost2010PropOp40
 70
     1
102
RTVSPost2010Prop41ColorIndex
 90
       18
102
RTVSPost2010Prop41ColorRGB
 90
        0
102
RTVSPost2010PropOp41
 70
     1
102
RTVSPost2010Prop42
 90
       50
102
RTVSPost2010PropOp42
 70
     1
102
RTVSPost2010Prop43
 90
        3
102
RTVSPost2010PropOp43
 70
     1
102
RTVSPost2010Prop44ColorIndex
 90
        5
102
RTVSPost2010Prop44ColorRGB
 90
      255
102
RTVSPost2010PropOp44
 70
     1
102
RTVSPost2010Prop45
280
     0
102
RTVSPost2010PropOp45
 70
     1
102
RTVSPost2010Prop46
 90
       50
102
RTVSPost2010PropOp46
 70
     1
102
RTVSPost2010Prop47
 90
       50
102
RTVSPost2010PropOp47
 70
     1
102
RTVSPost2010Prop48
 90
       50
102
RTVSPost2010PropOp48
 70
     1
102
RTVSPost2010Prop49
280
     0
102
RTVSPost2010PropOp49
 70
     1
102
RTVSPost2010Prop50
 90
       50
102
RTVSPost2010PropOp50
 70
     1
102
RTVSPost2010Prop51ColorIndex
 90
      256
102
RTVSPost2010Prop51ColorRGB
 90
-16777216
102
RTVSPost2010PropOp51
 70
     0
102
RTVSPost2010Prop52
140
1.0
102
RTVSPost2010PropOp52
 70
     0
102
RTVSPost2010Prop53
 90
        2
102
RTVSPost2010PropOp53
 70
     1
102
RTVSPost2010Prop54
  1
strokes_ogs.tif
102
RTVSPost2010PropOp54
 70
     1
102
RTVSPost2010Prop55
280
     0
102
RTVSPost2010PropOp55
 70
     1
102
RTVSPost2010Prop56
140
1.0
102
RTVSPost2010PropOp56
 70
     1
102
RTVSPost2010Prop57
140
1.0
102
RTVSPost2010PropOp57
 70
     1
  0
XRECORD
  5
438
102
{ACAD_REACTORS
330
437
102
}
330
437
100
AcDbXrecord
280
     1
102
RTVSPropertyOp0
 70
     1
102
RTVSPropertyOp1
 70
     1
102
RTVSPropertyOp2
 70
     1
102
RTVSPropertyOp3
 70
     1
102
RTVSPropertyOp4
 70
     1
102
RTVSPropertyOp5
 70
     1
102
RTVSPropertyOp6
 70
     1
102
RTVSPropertyOp7
 70
     1
102
RTVSPropertyOp8
 70
     1
102
RTVSPropertyOp9
 70
     1
102
RTVSPropertyOp10
 70
     1
102
RTVSPropertyOp11
 70
     1
102
RTVSPropertyOp12
 70
     1
102
RTVSPropertyOp13
 70
     1
102
RTVSPropertyOp14
 70
     1
102
RTVSPropertyOp15
 70
     1
102
RTVSPropertyOp16
 70
     1
102
RTVSPropertyOp17
 70
     1
102
RTVSPropertyOp18
 70
     1
102
RTVSPropertyOp19
 70
     1
102
RTVSPropertyOp20
 70
     1
102
RTVSPropertyOp21
 70
     1
102
RTVSPropertyOp22
 70
     1
102
RTVSPropertyOp23
 70
     1
102
RTVSPropertyOp24
 70
     1
102
RTVSPropertyOp25
 70
     1
102
RTVSPropertyOp26
 70
     1
102
RTVSPropertyOp27
 70
     1
102
RTVSPropertyOp28
 70
     1
102
RTVSPropertyOp29
 70
     1
102
RTVSPropertyOp30
 70
     1
102
RTVSPropertyOp31
 70
     1
102
RTVSPropertyOp32
 70
     1
102
RTVSPropertyOp33
 70
     1
102
RTVSPropertyOp34
 70
     1
102
RTVSPropertyOp35
 70
     1
102
RTVSPropertyOp36
 70
     1
102
RTVSPropertyOp37
 70
     1
102
RTVSPropertyOp38
 70
     1
102
RTVSPropertyOp39
 70
     1
102
RTVSPropertyOp40
 70
     1
102
RTVSPropertyOp41
 70
     1
102
RTVSPropertyOp42
 70
     1
102
RTVSPropertyOp43
 70
     1
102
RTVSPropertyOp44
 70
     1
102
RTVSPropertyOp45
 70
     1
102
RTVSPropertyOp46
 70
     1
102
RTVSPropertyOp47
 70
     1
102
RTVSPropertyOp48
 70
     1
102
RTVSPropertyOp49
 70
     1
102
RTVSPropertyOp50
 70
     1
102
RTVSPropertyOp51
 70
     0
102
RTVSPropertyOp52
 70
     0
102
RTVSPropertyOp53
 70
     1
102
RTVSPropertyOp54
 70
     1
102
RTVSPropertyOp55
 70
     1
102
RTVSPropertyOp56
 70
     1
102
RTVSPropertyOp57
 70
     1
102
RTVSPost2010Prop28
280
     0
102
RTVSPost2010PropOp28
 70
     1
102
RTVSPost2010Prop29
280
     1
102
RTVSPost2010PropOp29
 70
     1
102
RTVSPost2010Prop30
280
     1
102
RTVSPost2010PropOp30
 70
     1
102
RTVSPost2010Prop31
280
     0
102
RTVSPost2010PropOp31
 70
     1
102
RTVSPost2010Prop32
280
     0
102
RTVSPost2010PropOp32
 70
     1
102
RTVSPost2010Prop33
280
     0
102
RTVSPost2010PropOp33
 70
     1
102
RTVSPost2010Prop34
280
     0
102
RTVSPost2010PropOp34
 70
     1
102
RTVSPost2010Prop35
280
     0
102
RTVSPost2010PropOp35
 70
     1
102
RTVSPost2010Prop36
280
     0
102
RTVSPost2010PropOp36
 70
     1
102
RTVSPost2010Prop37
 90
       50
102
RTVSPost2010PropOp37
 70
     1
102
RTVSPost2010Prop38
140
0.0
102
RTVSPost2010PropOp38
 70
     1
102
RTVSPost2010Prop39
140
1.0
102
RTVSPost2010PropOp39
 70
     1
102
RTVSPost2010Prop40
 90
        0
102
RTVSPost2010PropOp40
 70
     1
102
RTVSPost2010Prop41ColorIndex
 90
       18
102
RTVSPost2010Prop41ColorRGB
 90
        0
102
RTVSPost2010PropOp41
 70
     1
102
RTVSPost2010Prop42
 90
       50
102
RTVSPost2010PropOp42
 70
     1
102
RTVSPost2010Prop43
 90
        3
102
RTVSPost2010PropOp43
 70
     1
102
RTVSPost2010Prop44ColorIndex
 90
        5
102
RTVSPost2010Prop44ColorRGB
 90
      255
102
RTVSPost2010PropOp44
 70
     1
102
RTVSPost2010Prop45
280
     0
102
RTVSPost2010PropOp45
 70
     1
102
RTVSPost2010Prop46
 90
       50
102
RTVSPost2010PropOp46
 70
     1
102
RTVSPost2010Prop47
 90
       50
102
RTVSPost2010PropOp47
 70
     1
102
RTVSPost2010Prop48
 90
       50
102
RTVSPost2010PropOp48
 70
     1
102
RTVSPost2010Prop49
280
     0
102
RTVSPost2010PropOp49
 70
     1
102
RTVSPost2010Prop50
 90
       50
102
RTVSPost2010PropOp50
 70
     1
102
RTVSPost2010Prop51ColorIndex
 90
      256
102
RTVSPost2010Prop51ColorRGB
 90
-16777216
102
RTVSPost2010PropOp51
 70
     0
102
RTVSPost2010Prop52
140
1.0
102
RTVSPost2010PropOp52
 70
     0
102
RTVSPost2010Prop53
 90
        2
102
RTVSPost2010PropOp53
 70
     1
102
RTVSPost2010Prop54
  1
strokes_ogs.tif
102
RTVSPost2010PropOp54
 70
     1
102
RTVSPost2010Prop55
280
     0
102
RTVSPost2010PropOp55
 70
     1
102
RTVSPost2010Prop56
140
1.0
102
RTVSPost2010PropOp56
 70
     1
102
RTVSPost2010Prop57
140
1.0
102
RTVSPost2010PropOp57
 70
     1
  0
XRECORD
  5
440
102
{ACAD_REACTORS
330
43F
102
}
330
43F
100
AcDbXrecord
280
     1
102
RTVSPropertyOp0
 70
     1
102
RTVSPropertyOp1
 70
     1
102
RTVSPropertyOp2
 70
     1
102
RTVSPropertyOp3
 70
     1
102
RTVSPropertyOp4
 70
     1
102
RTVSPropertyOp5
 70
     1
102
RTVSPropertyOp6
 70
     1
102
RTVSPropertyOp7
 70
     1
102
RTVSPropertyOp8
 70
     1
102
RTVSPropertyOp9
 70
     1
102
RTVSPropertyOp10
 70
     1
102
RTVSPropertyOp11
 70
     1
102
RTVSPropertyOp12
 70
     1
102
RTVSPropertyOp13
 70
     1
102
RTVSPropertyOp14
 70
     1
102
RTVSPropertyOp15
 70
     1
102
RTVSPropertyOp16
 70
     1
102
RTVSPropertyOp17
 70
     1
102
RTVSPropertyOp18
 70
     1
102
RTVSPropertyOp19
 70
     1
102
RTVSPropertyOp20
 70
     1
102
RTVSPropertyOp21
 70
     1
102
RTVSPropertyOp22
 70
     1
102
RTVSPropertyOp23
 70
     1
102
RTVSPropertyOp24
 70
     1
102
RTVSPropertyOp25
 70
     1
102
RTVSPropertyOp26
 70
     1
102
RTVSPropertyOp27
 70
     1
102
RTVSPropertyOp28
 70
     1
102
RTVSPropertyOp29
 70
     1
102
RTVSPropertyOp30
 70
     1
102
RTVSPropertyOp31
 70
     1
102
RTVSPropertyOp32
 70
     1
102
RTVSPropertyOp33
 70
     1
102
RTVSPropertyOp34
 70
     1
102
RTVSPropertyOp35
 70
     1
102
RTVSPropertyOp36
 70
     1
102
RTVSPropertyOp37
 70
     1
102
RTVSPropertyOp38
 70
     1
102
RTVSPropertyOp39
 70
     1
102
RTVSPropertyOp40
 70
     1
102
RTVSPropertyOp41
 70
     1
102
RTVSPropertyOp42
 70
     1
102
RTVSPropertyOp43
 70
     1
102
RTVSPropertyOp44
 70
     1
102
RTVSPropertyOp45
 70
     1
102
RTVSPropertyOp46
 70
     1
102
RTVSPropertyOp47
 70
     1
102
RTVSPropertyOp48
 70
     1
102
RTVSPropertyOp49
 70
     1
102
RTVSPropertyOp50
 70
     1
102
RTVSPropertyOp51
 70
     0
102
RTVSPropertyOp52
 70
     0
102
RTVSPropertyOp53
 70
     1
102
RTVSPropertyOp54
 70
     1
102
RTVSPropertyOp55
 70
     1
102
RTVSPropertyOp56
 70
     1
102
RTVSPropertyOp57
 70
     1
102
RTVSPost2010Prop28
280
     0
102
RTVSPost2010PropOp28
 70
     1
102
RTVSPost2010Prop29
280
     1
102
RTVSPost2010PropOp29
 70
     1
102
RTVSPost2010Prop30
280
     1
102
RTVSPost2010PropOp30
 70
     1
102
RTVSPost2010Prop31
280
     0
102
RTVSPost2010PropOp31
 70
     1
102
RTVSPost2010Prop32
280
     0
102
RTVSPost2010PropOp32
 70
     1
102
RTVSPost2010Prop33
280
     0
102
RTVSPost2010PropOp33
 70
     1
102
RTVSPost2010Prop34
280
     0
102
RTVSPost2010PropOp34
 70
     1
102
RTVSPost2010Prop35
280
     0
102
RTVSPost2010PropOp35
 70
     1
102
RTVSPost2010Prop36
280
     0
102
RTVSPost2010PropOp36
 70
     1
102
RTVSPost2010Prop37
 90
       50
102
RTVSPost2010PropOp37
 70
     1
102
RTVSPost2010Prop38
140
0.0
102
RTVSPost2010PropOp38
 70
     1
102
RTVSPost2010Prop39
140
1.0
102
RTVSPost2010PropOp39
 70
     1
102
RTVSPost2010Prop40
 90
        0
102
RTVSPost2010PropOp40
 70
     1
102
RTVSPost2010Prop41ColorIndex
 90
       18
102
RTVSPost2010Prop41ColorRGB
 90
        0
102
RTVSPost2010PropOp41
 70
     1
102
RTVSPost2010Prop42
 90
       50
102
RTVSPost2010PropOp42
 70
     1
102
RTVSPost2010Prop43
 90
        3
102
RTVSPost2010PropOp43
 70
     1
102
RTVSPost2010Prop44ColorIndex
 90
        5
102
RTVSPost2010Prop44ColorRGB
 90
      255
102
RTVSPost2010PropOp44
 70
     1
102
RTVSPost2010Prop45
280
     0
102
RTVSPost2010PropOp45
 70
     1
102
RTVSPost2010Prop46
 90
       50
102
RTVSPost2010PropOp46
 70
     1
102
RTVSPost2010Prop47
 90
       50
102
RTVSPost2010PropOp47
 70
     1
102
RTVSPost2010Prop48
 90
       50
102
RTVSPost2010PropOp48
 70
     1
102
RTVSPost2010Prop49
280
     0
102
RTVSPost2010PropOp49
 70
     1
102
RTVSPost2010Prop50
 90
       50
102
RTVSPost2010PropOp50
 70
     1
102
RTVSPost2010Prop51ColorIndex
 90
      256
102
RTVSPost2010Prop51ColorRGB
 90
-16777216
102
RTVSPost2010PropOp51
 70
     0
102
RTVSPost2010Prop52
140
1.0
102
RTVSPost2010PropOp52
 70
     0
102
RTVSPost2010Prop53
 90
        2
102
RTVSPost2010PropOp53
 70
     1
102
RTVSPost2010Prop54
  1
strokes_ogs.tif
102
RTVSPost2010PropOp54
 70
     1
102
RTVSPost2010Prop55
280
     0
102
RTVSPost2010PropOp55
 70
     1
102
RTVSPost2010Prop56
140
1.0
102
RTVSPost2010PropOp56
 70
     1
102
RTVSPost2010Prop57
140
1.0
102
RTVSPost2010PropOp57
 70
     1
  0
XRECORD
  5
448
102
{ACAD_REACTORS
330
447
102
}
330
447
100
AcDbXrecord
280
     1
102
RTVSPropertyOp0
 70
     1
102
RTVSPropertyOp1
 70
     1
102
RTVSPropertyOp2
 70
     1
102
RTVSPropertyOp3
 70
     1
102
RTVSPropertyOp4
 70
     1
102
RTVSPropertyOp5
 70
     1
102
RTVSPropertyOp6
 70
     1
102
RTVSPropertyOp7
 70
     1
102
RTVSPropertyOp8
 70
     1
102
RTVSPropertyOp9
 70
     1
102
RTVSPropertyOp10
 70
     1
102
RTVSPropertyOp11
 70
     1
102
RTVSPropertyOp12
 70
     1
102
RTVSPropertyOp13
 70
     1
102
RTVSPropertyOp14
 70
     1
102
RTVSPropertyOp15
 70
     1
102
RTVSPropertyOp16
 70
     1
102
RTVSPropertyOp17
 70
     1
102
RTVSPropertyOp18
 70
     1
102
RTVSPropertyOp19
 70
     1
102
RTVSPropertyOp20
 70
     1
102
RTVSPropertyOp21
 70
     1
102
RTVSPropertyOp22
 70
     1
102
RTVSPropertyOp23
 70
     1
102
RTVSPropertyOp24
 70
     1
102
RTVSPropertyOp25
 70
     1
102
RTVSPropertyOp26
 70
     1
102
RTVSPropertyOp27
 70
     1
102
RTVSPropertyOp28
 70
     1
102
RTVSPropertyOp29
 70
     1
102
RTVSPropertyOp30
 70
     1
102
RTVSPropertyOp31
 70
     1
102
RTVSPropertyOp32
 70
     1
102
RTVSPropertyOp33
 70
     1
102
RTVSPropertyOp34
 70
     1
102
RTVSPropertyOp35
 70
     1
102
RTVSPropertyOp36
 70
     1
102
RTVSPropertyOp37
 70
     1
102
RTVSPropertyOp38
 70
     1
102
RTVSPropertyOp39
 70
     1
102
RTVSPropertyOp40
 70
     1
102
RTVSPropertyOp41
 70
     1
102
RTVSPropertyOp42
 70
     1
102
RTVSPropertyOp43
 70
     1
102
RTVSPropertyOp44
 70
     1
102
RTVSPropertyOp45
 70
     1
102
RTVSPropertyOp46
 70
     1
102
RTVSPropertyOp47
 70
     1
102
RTVSPropertyOp48
 70
     1
102
RTVSPropertyOp49
 70
     1
102
RTVSPropertyOp50
 70
     1
102
RTVSPropertyOp51
 70
     0
102
RTVSPropertyOp52
 70
     0
102
RTVSPropertyOp53
 70
     1
102
RTVSPropertyOp54
 70
     1
102
RTVSPropertyOp55
 70
     1
102
RTVSPropertyOp56
 70
     1
102
RTVSPropertyOp57
 70
     1
102
RTVSPost2010Prop28
280
     0
102
RTVSPost2010PropOp28
 70
     1
102
RTVSPost2010Prop29
280
     1
102
RTVSPost2010PropOp29
 70
     1
102
RTVSPost2010Prop30
280
     1
102
RTVSPost2010PropOp30
 70
     1
102
RTVSPost2010Prop31
280
     0
102
RTVSPost2010PropOp31
 70
     1
102
RTVSPost2010Prop32
280
     0
102
RTVSPost2010PropOp32
 70
     1
102
RTVSPost2010Prop33
280
     0
102
RTVSPost2010PropOp33
 70
     1
102
RTVSPost2010Prop34
280
     0
102
RTVSPost2010PropOp34
 70
     1
102
RTVSPost2010Prop35
280
     0
102
RTVSPost2010PropOp35
 70
     1
102
RTVSPost2010Prop36
280
     0
102
RTVSPost2010PropOp36
 70
     1
102
RTVSPost2010Prop37
 90
       50
102
RTVSPost2010PropOp37
 70
     1
102
RTVSPost2010Prop38
140
0.0
102
RTVSPost2010PropOp38
 70
     1
102
RTVSPost2010Prop39
140
1.0
102
RTVSPost2010PropOp39
 70
     1
102
RTVSPost2010Prop40
 90
        0
102
RTVSPost2010PropOp40
 70
     1
102
RTVSPost2010Prop41ColorIndex
 90
       18
102
RTVSPost2010Prop41ColorRGB
 90
        0
102
RTVSPost2010PropOp41
 70
     1
102
RTVSPost2010Prop42
 90
       50
102
RTVSPost2010PropOp42
 70
     1
102
RTVSPost2010Prop43
 90
        3
102
RTVSPost2010PropOp43
 70
     1
102
RTVSPost2010Prop44ColorIndex
 90
        5
102
RTVSPost2010Prop44ColorRGB
 90
      255
102
RTVSPost2010PropOp44
 70
     1
102
RTVSPost2010Prop45
280
     0
102
RTVSPost2010PropOp45
 70
     1
102
RTVSPost2010Prop46
 90
       50
102
RTVSPost2010PropOp46
 70
     1
102
RTVSPost2010Prop47
 90
       50
102
RTVSPost2010PropOp47
 70
     1
102
RTVSPost2010Prop48
 90
       50
102
RTVSPost2010PropOp48
 70
     1
102
RTVSPost2010Prop49
280
     0
102
RTVSPost2010PropOp49
 70
     1
102
RTVSPost2010Prop50
 90
       50
102
RTVSPost2010PropOp50
 70
     1
102
RTVSPost2010Prop51ColorIndex
 90
      256
102
RTVSPost2010Prop51ColorRGB
 90
-16777216
102
RTVSPost2010PropOp51
 70
     0
102
RTVSPost2010Prop52
140
1.0
102
RTVSPost2010PropOp52
 70
     0
102
RTVSPost2010Prop53
 90
        2
102
RTVSPost2010PropOp53
 70
     1
102
RTVSPost2010Prop54
  1
strokes_ogs.tif
102
RTVSPost2010PropOp54
 70
     1
102
RTVSPost2010Prop55
280
     0
102
RTVSPost2010PropOp55
 70
     1
102
RTVSPost2010Prop56
140
1.0
102
RTVSPost2010PropOp56
 70
     1
102
RTVSPost2010Prop57
140
1.0
102
RTVSPost2010PropOp57
 70
     1
  0
XRECORD
  5
43C
102
{ACAD_REACTORS
330
43B
102
}
330
43B
100
AcDbXrecord
280
     1
102
RTVSPropertyOp0
 70
     1
102
RTVSPropertyOp1
 70
     1
102
RTVSPropertyOp2
 70
     1
102
RTVSPropertyOp3
 70
     1
102
RTVSPropertyOp4
 70
     1
102
RTVSPropertyOp5
 70
     1
102
RTVSPropertyOp6
 70
     1
102
RTVSPropertyOp7
 70
     1
102
RTVSPropertyOp8
 70
     1
102
RTVSPropertyOp9
 70
     1
102
RTVSPropertyOp10
 70
     1
102
RTVSPropertyOp11
 70
     1
102
RTVSPropertyOp12
 70
     1
102
RTVSPropertyOp13
 70
     1
102
RTVSPropertyOp14
 70
     1
102
RTVSPropertyOp15
 70
     1
102
RTVSPropertyOp16
 70
     1
102
RTVSPropertyOp17
 70
     1
102
RTVSPropertyOp18
 70
     1
102
RTVSPropertyOp19
 70
     1
102
RTVSPropertyOp20
 70
     1
102
RTVSPropertyOp21
 70
     1
102
RTVSPropertyOp22
 70
     1
102
RTVSPropertyOp23
 70
     1
102
RTVSPropertyOp24
 70
     1
102
RTVSPropertyOp25
 70
     1
102
RTVSPropertyOp26
 70
     1
102
RTVSPropertyOp27
 70
     1
102
RTVSPropertyOp28
 70
     1
102
RTVSPropertyOp29
 70
     1
102
RTVSPropertyOp30
 70
     1
102
RTVSPropertyOp31
 70
     1
102
RTVSPropertyOp32
 70
     1
102
RTVSPropertyOp33
 70
     1
102
RTVSPropertyOp34
 70
     1
102
RTVSPropertyOp35
 70
     1
102
RTVSPropertyOp36
 70
     1
102
RTVSPropertyOp37
 70
     1
102
RTVSPropertyOp38
 70
     1
102
RTVSPropertyOp39
 70
     1
102
RTVSPropertyOp40
 70
     1
102
RTVSPropertyOp41
 70
     1
102
RTVSPropertyOp42
 70
     1
102
RTVSPropertyOp43
 70
     1
102
RTVSPropertyOp44
 70
     1
102
RTVSPropertyOp45
 70
     1
102
RTVSPropertyOp46
 70
     1
102
RTVSPropertyOp47
 70
     1
102
RTVSPropertyOp48
 70
     1
102
RTVSPropertyOp49
 70
     1
102
RTVSPropertyOp50
 70
     1
102
RTVSPropertyOp51
 70
     0
102
RTVSPropertyOp52
 70
     0
102
RTVSPropertyOp53
 70
     1
102
RTVSPropertyOp54
 70
     1
102
RTVSPropertyOp55
 70
     1
102
RTVSPropertyOp56
 70
     1
102
RTVSPropertyOp57
 70
     1
102
RTVSPost2010Prop28
280
     0
102
RTVSPost2010PropOp28
 70
     1
102
RTVSPost2010Prop29
280
     1
102
RTVSPost2010PropOp29
 70
     1
102
RTVSPost2010Prop30
280
     1
102
RTVSPost2010PropOp30
 70
     1
102
RTVSPost2010Prop31
280
     0
102
RTVSPost2010PropOp31
 70
     1
102
RTVSPost2010Prop32
280
     0
102
RTVSPost2010PropOp32
 70
     1
102
RTVSPost2010Prop33
280
     0
102
RTVSPost2010PropOp33
 70
     1
102
RTVSPost2010Prop34
280
     0
102
RTVSPost2010PropOp34
 70
     1
102
RTVSPost2010Prop35
280
     0
102
RTVSPost2010PropOp35
 70
     1
102
RTVSPost2010Prop36
280
     0
102
RTVSPost2010PropOp36
 70
     1
102
RTVSPost2010Prop37
 90
       50
102
RTVSPost2010PropOp37
 70
     1
102
RTVSPost2010Prop38
140
0.0
102
RTVSPost2010PropOp38
 70
     1
102
RTVSPost2010Prop39
140
1.0
102
RTVSPost2010PropOp39
 70
     1
102
RTVSPost2010Prop40
 90
        0
102
RTVSPost2010PropOp40
 70
     1
102
RTVSPost2010Prop41ColorIndex
 90
       18
102
RTVSPost2010Prop41ColorRGB
 90
        0
102
RTVSPost2010PropOp41
 70
     1
102
RTVSPost2010Prop42
 90
       50
102
RTVSPost2010PropOp42
 70
     1
102
RTVSPost2010Prop43
 90
        3
102
RTVSPost2010PropOp43
 70
     1
102
RTVSPost2010Prop44ColorIndex
 90
        5
102
RTVSPost2010Prop44ColorRGB
 90
      255
102
RTVSPost2010PropOp44
 70
     1
102
RTVSPost2010Prop45
280
     0
102
RTVSPost2010PropOp45
 70
     1
102
RTVSPost2010Prop46
 90
       50
102
RTVSPost2010PropOp46
 70
     1
102
RTVSPost2010Prop47
 90
       50
102
RTVSPost2010PropOp47
 70
     1
102
RTVSPost2010Prop48
 90
       50
102
RTVSPost2010PropOp48
 70
     1
102
RTVSPost2010Prop49
280
     0
102
RTVSPost2010PropOp49
 70
     1
102
RTVSPost2010Prop50
 90
       50
102
RTVSPost2010PropOp50
 70
     1
102
RTVSPost2010Prop51ColorIndex
 90
      256
102
RTVSPost2010Prop51ColorRGB
 90
-16777216
102
RTVSPost2010PropOp51
 70
     0
102
RTVSPost2010Prop52
140
1.0
102
RTVSPost2010PropOp52
 70
     0
102
RTVSPost2010Prop53
 90
        2
102
RTVSPost2010PropOp53
 70
     1
102
RTVSPost2010Prop54
  1
strokes_ogs.tif
102
RTVSPost2010PropOp54
 70
     1
102
RTVSPost2010Prop55
280
     0
102
RTVSPost2010PropOp55
 70
     1
102
RTVSPost2010Prop56
140
1.0
102
RTVSPost2010PropOp56
 70
     1
102
RTVSPost2010Prop57
140
1.0
102
RTVSPost2010PropOp57
 70
     1
  0
XRECORD
  5
43E
102
{ACAD_REACTORS
330
43D
102
}
330
43D
100
AcDbXrecord
280
     1
102
RTVSPropertyOp0
 70
     1
102
RTVSPropertyOp1
 70
     1
102
RTVSPropertyOp2
 70
     1
102
RTVSPropertyOp3
 70
     1
102
RTVSPropertyOp4
 70
     1
102
RTVSPropertyOp5
 70
     1
102
RTVSPropertyOp6
 70
     1
102
RTVSPropertyOp7
 70
     1
102
RTVSPropertyOp8
 70
     1
102
RTVSPropertyOp9
 70
     1
102
RTVSPropertyOp10
 70
     1
102
RTVSPropertyOp11
 70
     1
102
RTVSPropertyOp12
 70
     1
102
RTVSPropertyOp13
 70
     1
102
RTVSPropertyOp14
 70
     1
102
RTVSPropertyOp15
 70
     1
102
RTVSPropertyOp16
 70
     1
102
RTVSPropertyOp17
 70
     1
102
RTVSPropertyOp18
 70
     1
102
RTVSPropertyOp19
 70
     1
102
RTVSPropertyOp20
 70
     1
102
RTVSPropertyOp21
 70
     1
102
RTVSPropertyOp22
 70
     1
102
RTVSPropertyOp23
 70
     1
102
RTVSPropertyOp24
 70
     1
102
RTVSPropertyOp25
 70
     1
102
RTVSPropertyOp26
 70
     1
102
RTVSPropertyOp27
 70
     1
102
RTVSPropertyOp28
 70
     1
102
RTVSPropertyOp29
 70
     1
102
RTVSPropertyOp30
 70
     1
102
RTVSPropertyOp31
 70
     1
102
RTVSPropertyOp32
 70
     1
102
RTVSPropertyOp33
 70
     1
102
RTVSPropertyOp34
 70
     1
102
RTVSPropertyOp35
 70
     1
102
RTVSPropertyOp36
 70
     1
102
RTVSPropertyOp37
 70
     1
102
RTVSPropertyOp38
 70
     1
102
RTVSPropertyOp39
 70
     1
102
RTVSPropertyOp40
 70
     1
102
RTVSPropertyOp41
 70
     1
102
RTVSPropertyOp42
 70
     1
102
RTVSPropertyOp43
 70
     1
102
RTVSPropertyOp44
 70
     1
102
RTVSPropertyOp45
 70
     1
102
RTVSPropertyOp46
 70
     1
102
RTVSPropertyOp47
 70
     1
102
RTVSPropertyOp48
 70
     1
102
RTVSPropertyOp49
 70
     1
102
RTVSPropertyOp50
 70
     1
102
RTVSPropertyOp51
 70
     0
102
RTVSPropertyOp52
 70
     0
102
RTVSPropertyOp53
 70
     1
102
RTVSPropertyOp54
 70
     1
102
RTVSPropertyOp55
 70
     1
102
RTVSPropertyOp56
 70
     1
102
RTVSPropertyOp57
 70
     1
102
RTVSPost2010Prop28
280
     0
102
RTVSPost2010PropOp28
 70
     1
102
RTVSPost2010Prop29
280
     1
102
RTVSPost2010PropOp29
 70
     1
102
RTVSPost2010Prop30
280
     1
102
RTVSPost2010PropOp30
 70
     1
102
RTVSPost2010Prop31
280
     0
102
RTVSPost2010PropOp31
 70
     1
102
RTVSPost2010Prop32
280
     0
102
RTVSPost2010PropOp32
 70
     1
102
RTVSPost2010Prop33
280
     0
102
RTVSPost2010PropOp33
 70
     1
102
RTVSPost2010Prop34
280
     0
102
RTVSPost2010PropOp34
 70
     1
102
RTVSPost2010Prop35
280
     0
102
RTVSPost2010PropOp35
 70
     1
102
RTVSPost2010Prop36
280
     0
102
RTVSPost2010PropOp36
 70
     1
102
RTVSPost2010Prop37
 90
       50
102
RTVSPost2010PropOp37
 70
     1
102
RTVSPost2010Prop38
140
0.0
102
RTVSPost2010PropOp38
 70
     1
102
RTVSPost2010Prop39
140
1.0
102
RTVSPost2010PropOp39
 70
     1
102
RTVSPost2010Prop40
 90
        0
102
RTVSPost2010PropOp40
 70
     1
102
RTVSPost2010Prop41ColorIndex
 90
       18
102
RTVSPost2010Prop41ColorRGB
 90
        0
102
RTVSPost2010PropOp41
 70
     1
102
RTVSPost2010Prop42
 90
       50
102
RTVSPost2010PropOp42
 70
     1
102
RTVSPost2010Prop43
 90
        3
102
RTVSPost2010PropOp43
 70
     1
102
RTVSPost2010Prop44ColorIndex
 90
        5
102
RTVSPost2010Prop44ColorRGB
 90
      255
102
RTVSPost2010PropOp44
 70
     1
102
RTVSPost2010Prop45
280
     0
102
RTVSPost2010PropOp45
 70
     1
102
RTVSPost2010Prop46
 90
       50
102
RTVSPost2010PropOp46
 70
     1
102
RTVSPost2010Prop47
 90
       50
102
RTVSPost2010PropOp47
 70
     1
102
RTVSPost2010Prop48
 90
       50
102
RTVSPost2010PropOp48
 70
     1
102
RTVSPost2010Prop49
280
     0
102
RTVSPost2010PropOp49
 70
     1
102
RTVSPost2010Prop50
 90
       50
102
RTVSPost2010PropOp50
 70
     1
102
RTVSPost2010Prop51ColorIndex
 90
      256
102
RTVSPost2010Prop51ColorRGB
 90
-16777216
102
RTVSPost2010PropOp51
 70
     0
102
RTVSPost2010Prop52
140
1.0
102
RTVSPost2010PropOp52
 70
     0
102
RTVSPost2010Prop53
 90
        2
102
RTVSPost2010PropOp53
 70
     1
102
RTVSPost2010Prop54
  1
strokes_ogs.tif
102
RTVSPost2010PropOp54
 70
     1
102
RTVSPost2010Prop55
280
     0
102
RTVSPost2010PropOp55
 70
     1
102
RTVSPost2010Prop56
140
1.0
102
RTVSPost2010PropOp56
 70
     1
102
RTVSPost2010Prop57
140
1.0
102
RTVSPost2010PropOp57
 70
     1
  0
XRECORD
  5
44E
102
{ACAD_REACTORS
330
44D
102
}
330
44D
100
AcDbXrecord
280
     1
102
RTVSPropertyOp0
 70
     0
102
RTVSPropertyOp1
 70
     0
102
RTVSPropertyOp2
 70
     0
102
RTVSPropertyOp3
 70
     0
102
RTVSPropertyOp4
 70
     0
102
RTVSPropertyOp5
 70
     0
102
RTVSPropertyOp6
 70
     0
102
RTVSPropertyOp7
 70
     0
102
RTVSPropertyOp8
 70
     0
102
RTVSPropertyOp9
 70
     0
102
RTVSPropertyOp10
 70
     0
102
RTVSPropertyOp11
 70
     0
102
RTVSPropertyOp12
 70
     0
102
RTVSPropertyOp13
 70
     0
102
RTVSPropertyOp14
 70
     2
102
RTVSPropertyOp15
 70
     0
102
RTVSPropertyOp16
 70
     0
102
RTVSPropertyOp17
 70
     0
102
RTVSPropertyOp18
 70
     0
102
RTVSPropertyOp19
 70
     0
102
RTVSPropertyOp20
 70
     0
102
RTVSPropertyOp21
 70
     0
102
RTVSPropertyOp22
 70
     0
102
RTVSPropertyOp23
 70
     0
102
RTVSPropertyOp24
 70
     0
102
RTVSPropertyOp25
 70
     0
102
RTVSPropertyOp26
 70
     0
102
RTVSPropertyOp27
 70
     0
102
RTVSPropertyOp28
 70
     0
102
RTVSPropertyOp29
 70
     0
102
RTVSPropertyOp30
 70
     0
102
RTVSPropertyOp31
 70
     0
102
RTVSPropertyOp32
 70
     0
102
RTVSPropertyOp33
 70
     0
102
RTVSPropertyOp34
 70
     0
102
RTVSPropertyOp35
 70
     0
102
RTVSPropertyOp36
 70
     0
102
RTVSPropertyOp37
 70
     0
102
RTVSPropertyOp38
 70
     0
102
RTVSPropertyOp39
 70
     0
102
RTVSPropertyOp40
 70
     0
102
RTVSPropertyOp41
 70
     0
102
RTVSPropertyOp42
 70
     0
102
RTVSPropertyOp43
 70
     0
102
RTVSPropertyOp44
 70
     0
102
RTVSPropertyOp45
 70
     0
102
RTVSPropertyOp46
 70
     0
102
RTVSPropertyOp47
 70
     0
102
RTVSPropertyOp48
 70
     0
102
RTVSPropertyOp49
 70
     0
102
RTVSPropertyOp50
 70
     0
102
RTVSPropertyOp51
 70
     0
102
RTVSPropertyOp52
 70
     0
102
RTVSPropertyOp53
 70
     0
102
RTVSPropertyOp54
 70
     0
102
RTVSPropertyOp55
 70
     0
102
RTVSPropertyOp56
 70
     0
102
RTVSPropertyOp57
 70
     0
102
RTVSPost2010Prop28
280
     0
102
RTVSPost2010PropOp28
 70
     0
102
RTVSPost2010Prop29
280
     1
102
RTVSPost2010PropOp29
 70
     0
102
RTVSPost2010Prop30
280
     1
102
RTVSPost2010PropOp30
 70
     0
102
RTVSPost2010Prop31
280
     0
102
RTVSPost2010PropOp31
 70
     0
102
RTVSPost2010Prop32
280
     0
102
RTVSPost2010PropOp32
 70
     0
102
RTVSPost2010Prop33
280
     0
102
RTVSPost2010PropOp33
 70
     0
102
RTVSPost2010Prop34
280
     0
102
RTVSPost2010PropOp34
 70
     0
102
RTVSPost2010Prop35
280
     0
102
RTVSPost2010PropOp35
 70
     0
102
RTVSPost2010Prop36
280
     0
102
RTVSPost2010PropOp36
 70
     0
102
RTVSPost2010Prop37
 90
       50
102
RTVSPost2010PropOp37
 70
     0
102
RTVSPost2010Prop38
140
0.0
102
RTVSPost2010PropOp38
 70
     0
102
RTVSPost2010Prop39
140
1.0
102
RTVSPost2010PropOp39
 70
     0
102
RTVSPost2010Prop40
 90
        0
102
RTVSPost2010PropOp40
 70
     0
102
RTVSPost2010Prop41ColorIndex
 90
       18
102
RTVSPost2010Prop41ColorRGB
 90
        0
102
RTVSPost2010PropOp41
 70
     0
102
RTVSPost2010Prop42
 90
       50
102
RTVSPost2010PropOp42
 70
     0
102
RTVSPost2010Prop43
 90
        3
102
RTVSPost2010PropOp43
 70
     0
102
RTVSPost2010Prop44ColorIndex
 90
        5
102
RTVSPost2010Prop44ColorRGB
 90
      255
102
RTVSPost2010PropOp44
 70
     0
102
RTVSPost2010Prop45
280
     0
102
RTVSPost2010PropOp45
 70
     0
102
RTVSPost2010Prop46
 90
       50
102
RTVSPost2010PropOp46
 70
     0
102
RTVSPost2010Prop47
 90
       50
102
RTVSPost2010PropOp47
 70
     0
102
RTVSPost2010Prop48
 90
       50
102
RTVSPost2010PropOp48
 70
     0
102
RTVSPost2010Prop49
280
     0
102
RTVSPost2010PropOp49
 70
     0
102
RTVSPost2010Prop50
 90
       50
102
RTVSPost2010PropOp50
 70
     0
102
RTVSPost2010Prop51ColorIndex
 90
      256
102
RTVSPost2010Prop51ColorRGB
 90
-16777216
102
RTVSPost2010PropOp51
 70
     0
102
RTVSPost2010Prop52
140
1.0
102
RTVSPost2010PropOp52
 70
     0
102
RTVSPost2010Prop53
 90
        2
102
RTVSPost2010PropOp53
 70
     0
102
RTVSPost2010Prop54
  1
strokes_ogs.tif
102
RTVSPost2010PropOp54
 70
     0
102
RTVSPost2010Prop55
280
     0
102
RTVSPost2010PropOp55
 70
     0
102
RTVSPost2010Prop56
140
1.0
102
RTVSPost2010PropOp56
 70
     0
102
RTVSPost2010Prop57
140
1.0
102
RTVSPost2010PropOp57
 70
     0
  0
XRECORD
  5
446
102
{ACAD_REACTORS
330
445
102
}
330
445
100
AcDbXrecord
280
     1
102
RTVSPropertyOp0
 70
     1
102
RTVSPropertyOp1
 70
     1
102
RTVSPropertyOp2
 70
     1
102
RTVSPropertyOp3
 70
     1
102
RTVSPropertyOp4
 70
     1
102
RTVSPropertyOp5
 70
     1
102
RTVSPropertyOp6
 70
     1
102
RTVSPropertyOp7
 70
     1
102
RTVSPropertyOp8
 70
     1
102
RTVSPropertyOp9
 70
     1
102
RTVSPropertyOp10
 70
     1
102
RTVSPropertyOp11
 70
     1
102
RTVSPropertyOp12
 70
     1
102
RTVSPropertyOp13
 70
     1
102
RTVSPropertyOp14
 70
     1
102
RTVSPropertyOp15
 70
     1
102
RTVSPropertyOp16
 70
     1
102
RTVSPropertyOp17
 70
     1
102
RTVSPropertyOp18
 70
     1
102
RTVSPropertyOp19
 70
     1
102
RTVSPropertyOp20
 70
     1
102
RTVSPropertyOp21
 70
     1
102
RTVSPropertyOp22
 70
     1
102
RTVSPropertyOp23
 70
     1
102
RTVSPropertyOp24
 70
     1
102
RTVSPropertyOp25
 70
     1
102
RTVSPropertyOp26
 70
     1
102
RTVSPropertyOp27
 70
     1
102
RTVSPropertyOp28
 70
     1
102
RTVSPropertyOp29
 70
     1
102
RTVSPropertyOp30
 70
     1
102
RTVSPropertyOp31
 70
     1
102
RTVSPropertyOp32
 70
     1
102
RTVSPropertyOp33
 70
     1
102
RTVSPropertyOp34
 70
     1
102
RTVSPropertyOp35
 70
     1
102
RTVSPropertyOp36
 70
     1
102
RTVSPropertyOp37
 70
     1
102
RTVSPropertyOp38
 70
     1
102
RTVSPropertyOp39
 70
     1
102
RTVSPropertyOp40
 70
     1
102
RTVSPropertyOp41
 70
     1
102
RTVSPropertyOp42
 70
     1
102
RTVSPropertyOp43
 70
     1
102
RTVSPropertyOp44
 70
     1
102
RTVSPropertyOp45
 70
     1
102
RTVSPropertyOp46
 70
     1
102
RTVSPropertyOp47
 70
     1
102
RTVSPropertyOp48
 70
     1
102
RTVSPropertyOp49
 70
     1
102
RTVSPropertyOp50
 70
     1
102
RTVSPropertyOp51
 70
     0
102
RTVSPropertyOp52
 70
     0
102
RTVSPropertyOp53
 70
     1
102
RTVSPropertyOp54
 70
     1
102
RTVSPropertyOp55
 70
     1
102
RTVSPropertyOp56
 70
     1
102
RTVSPropertyOp57
 70
     1
102
RTVSPost2010Prop28
280
     0
102
RTVSPost2010PropOp28
 70
     1
102
RTVSPost2010Prop29
280
     1
102
RTVSPost2010PropOp29
 70
     1
102
RTVSPost2010Prop30
280
     1
102
RTVSPost2010PropOp30
 70
     1
102
RTVSPost2010Prop31
280
     0
102
RTVSPost2010PropOp31
 70
     1
102
RTVSPost2010Prop32
280
     0
102
RTVSPost2010PropOp32
 70
     1
102
RTVSPost2010Prop33
280
     0
102
RTVSPost2010PropOp33
 70
     1
102
RTVSPost2010Prop34
280
     0
102
RTVSPost2010PropOp34
 70
     1
102
RTVSPost2010Prop35
280
     0
102
RTVSPost2010PropOp35
 70
     1
102
RTVSPost2010Prop36
280
     0
102
RTVSPost2010PropOp36
 70
     1
102
RTVSPost2010Prop37
 90
       50
102
RTVSPost2010PropOp37
 70
     1
102
RTVSPost2010Prop38
140
0.0
102
RTVSPost2010PropOp38
 70
     1
102
RTVSPost2010Prop39
140
1.0
102
RTVSPost2010PropOp39
 70
     1
102
RTVSPost2010Prop40
 90
        0
102
RTVSPost2010PropOp40
 70
     1
102
RTVSPost2010Prop41ColorIndex
 90
       18
102
RTVSPost2010Prop41ColorRGB
 90
        0
102
RTVSPost2010PropOp41
 70
     1
102
RTVSPost2010Prop42
 90
       50
102
RTVSPost2010PropOp42
 70
     1
102
RTVSPost2010Prop43
 90
        3
102
RTVSPost2010PropOp43
 70
     1
102
RTVSPost2010Prop44ColorIndex
 90
        5
102
RTVSPost2010Prop44ColorRGB
 90
      255
102
RTVSPost2010PropOp44
 70
     1
102
RTVSPost2010Prop45
280
     0
102
RTVSPost2010PropOp45
 70
     1
102
RTVSPost2010Prop46
 90
       50
102
RTVSPost2010PropOp46
 70
     1
102
RTVSPost2010Prop47
 90
       50
102
RTVSPost2010PropOp47
 70
     1
102
RTVSPost2010Prop48
 90
       50
102
RTVSPost2010PropOp48
 70
     1
102
RTVSPost2010Prop49
280
     0
102
RTVSPost2010PropOp49
 70
     1
102
RTVSPost2010Prop50
 90
       50
102
RTVSPost2010PropOp50
 70
     1
102
RTVSPost2010Prop51ColorIndex
 90
      256
102
RTVSPost2010Prop51ColorRGB
 90
-16777216
102
RTVSPost2010PropOp51
 70
     0
102
RTVSPost2010Prop52
140
1.0
102
RTVSPost2010PropOp52
 70
     0
102
RTVSPost2010Prop53
 90
        2
102
RTVSPost2010PropOp53
 70
     1
102
RTVSPost2010Prop54
  1
strokes_ogs.tif
102
RTVSPost2010PropOp54
 70
     1
102
RTVSPost2010Prop55
280
     0
102
RTVSPost2010PropOp55
 70
     1
102
RTVSPost2010Prop56
140
1.0
102
RTVSPost2010PropOp56
 70
     1
102
RTVSPost2010Prop57
140
1.0
102
RTVSPost2010PropOp57
 70
     1
  0
XRECORD
  5
42A
102
{ACAD_REACTORS
330
429
102
}
330
429
100
AcDbXrecord
280
     1
102
RTVSPropertyOp0
 70
     1
102
RTVSPropertyOp1
 70
     1
102
RTVSPropertyOp2
 70
     1
102
RTVSPropertyOp3
 70
     1
102
RTVSPropertyOp4
 70
     1
102
RTVSPropertyOp5
 70
     1
102
RTVSPropertyOp6
 70
     1
102
RTVSPropertyOp7
 70
     1
102
RTVSPropertyOp8
 70
     1
102
RTVSPropertyOp9
 70
     1
102
RTVSPropertyOp10
 70
     1
102
RTVSPropertyOp11
 70
     1
102
RTVSPropertyOp12
 70
     1
102
RTVSPropertyOp13
 70
     1
102
RTVSPropertyOp14
 70
     1
102
RTVSPropertyOp15
 70
     1
102
RTVSPropertyOp16
 70
     1
102
RTVSPropertyOp17
 70
     1
102
RTVSPropertyOp18
 70
     1
102
RTVSPropertyOp19
 70
     1
102
RTVSPropertyOp20
 70
     1
102
RTVSPropertyOp21
 70
     1
102
RTVSPropertyOp22
 70
     1
102
RTVSPropertyOp23
 70
     1
102
RTVSPropertyOp24
 70
     1
102
RTVSPropertyOp25
 70
     1
102
RTVSPropertyOp26
 70
     1
102
RTVSPropertyOp27
 70
     1
102
RTVSPropertyOp28
 70
     1
102
RTVSPropertyOp29
 70
     1
102
RTVSPropertyOp30
 70
     1
102
RTVSPropertyOp31
 70
     1
102
RTVSPropertyOp32
 70
     1
102
RTVSPropertyOp33
 70
     1
102
RTVSPropertyOp34
 70
     1
102
RTVSPropertyOp35
 70
     1
102
RTVSPropertyOp36
 70
     1
102
RTVSPropertyOp37
 70
     1
102
RTVSPropertyOp38
 70
     1
102
RTVSPropertyOp39
 70
     1
102
RTVSPropertyOp40
 70
     1
102
RTVSPropertyOp41
 70
     1
102
RTVSPropertyOp42
 70
     1
102
RTVSPropertyOp43
 70
     1
102
RTVSPropertyOp44
 70
     1
102
RTVSPropertyOp45
 70
     1
102
RTVSPropertyOp46
 70
     1
102
RTVSPropertyOp47
 70
     1
102
RTVSPropertyOp48
 70
     1
102
RTVSPropertyOp49
 70
     1
102
RTVSPropertyOp50
 70
     1
102
RTVSPropertyOp51
 70
     0
102
RTVSPropertyOp52
 70
     0
102
RTVSPropertyOp53
 70
     1
102
RTVSPropertyOp54
 70
     1
102
RTVSPropertyOp55
 70
     1
102
RTVSPropertyOp56
 70
     1
102
RTVSPropertyOp57
 70
     1
102
RTVSPost2010Prop28
280
     0
102
RTVSPost2010PropOp28
 70
     1
102
RTVSPost2010Prop29
280
     1
102
RTVSPost2010PropOp29
 70
     1
102
RTVSPost2010Prop30
280
     1
102
RTVSPost2010PropOp30
 70
     1
102
RTVSPost2010Prop31
280
     0
102
RTVSPost2010PropOp31
 70
     1
102
RTVSPost2010Prop32
280
     0
102
RTVSPost2010PropOp32
 70
     1
102
RTVSPost2010Prop33
280
     0
102
RTVSPost2010PropOp33
 70
     1
102
RTVSPost2010Prop34
280
     0
102
RTVSPost2010PropOp34
 70
     1
102
RTVSPost2010Prop35
280
     0
102
RTVSPost2010PropOp35
 70
     1
102
RTVSPost2010Prop36
280
     0
102
RTVSPost2010PropOp36
 70
     1
102
RTVSPost2010Prop37
 90
       50
102
RTVSPost2010PropOp37
 70
     1
102
RTVSPost2010Prop38
140
0.0
102
RTVSPost2010PropOp38
 70
     1
102
RTVSPost2010Prop39
140
1.0
102
RTVSPost2010PropOp39
 70
     1
102
RTVSPost2010Prop40
 90
        0
102
RTVSPost2010PropOp40
 70
     1
102
RTVSPost2010Prop41ColorIndex
 90
       18
102
RTVSPost2010Prop41ColorRGB
 90
        0
102
RTVSPost2010PropOp41
 70
     1
102
RTVSPost2010Prop42
 90
       50
102
RTVSPost2010PropOp42
 70
     1
102
RTVSPost2010Prop43
 90
        3
102
RTVSPost2010PropOp43
 70
     1
102
RTVSPost2010Prop44ColorIndex
 90
        5
102
RTVSPost2010Prop44ColorRGB
 90
      255
102
RTVSPost2010PropOp44
 70
     1
102
RTVSPost2010Prop45
280
     0
102
RTVSPost2010PropOp45
 70
     1
102
RTVSPost2010Prop46
 90
       50
102
RTVSPost2010PropOp46
 70
     1
102
RTVSPost2010Prop47
 90
       50
102
RTVSPost2010PropOp47
 70
     1
102
RTVSPost2010Prop48
 90
       50
102
RTVSPost2010PropOp48
 70
     1
102
RTVSPost2010Prop49
280
     0
102
RTVSPost2010PropOp49
 70
     1
102
RTVSPost2010Prop50
 90
       50
102
RTVSPost2010PropOp50
 70
     1
102
RTVSPost2010Prop51ColorIndex
 90
      256
102
RTVSPost2010Prop51ColorRGB
 90
-16777216
102
RTVSPost2010PropOp51
 70
     0
102
RTVSPost2010Prop52
140
1.0
102
RTVSPost2010PropOp52
 70
     0
102
RTVSPost2010Prop53
 90
        2
102
RTVSPost2010PropOp53
 70
     1
102
RTVSPost2010Prop54
  1
strokes_ogs.tif
102
RTVSPost2010PropOp54
 70
     1
102
RTVSPost2010Prop55
280
     0
102
RTVSPost2010PropOp55
 70
     1
102
RTVSPost2010Prop56
140
1.0
102
RTVSPost2010PropOp56
 70
     1
102
RTVSPost2010Prop57
140
1.0
102
RTVSPost2010PropOp57
 70
     1
  0
XRECORD
  5
42C
102
{ACAD_REACTORS
330
42B
102
}
330
42B
100
AcDbXrecord
280
     1
102
RTVSPropertyOp0
 70
     1
102
RTVSPropertyOp1
 70
     1
102
RTVSPropertyOp2
 70
     1
102
RTVSPropertyOp3
 70
     1
102
RTVSPropertyOp4
 70
     1
102
RTVSPropertyOp5
 70
     1
102
RTVSPropertyOp6
 70
     1
102
RTVSPropertyOp7
 70
     1
102
RTVSPropertyOp8
 70
     1
102
RTVSPropertyOp9
 70
     1
102
RTVSPropertyOp10
 70
     1
102
RTVSPropertyOp11
 70
     1
102
RTVSPropertyOp12
 70
     1
102
RTVSPropertyOp13
 70
     1
102
RTVSPropertyOp14
 70
     1
102
RTVSPropertyOp15
 70
     1
102
RTVSPropertyOp16
 70
     1
102
RTVSPropertyOp17
 70
     1
102
RTVSPropertyOp18
 70
     1
102
RTVSPropertyOp19
 70
     1
102
RTVSPropertyOp20
 70
     1
102
RTVSPropertyOp21
 70
     1
102
RTVSPropertyOp22
 70
     1
102
RTVSPropertyOp23
 70
     1
102
RTVSPropertyOp24
 70
     1
102
RTVSPropertyOp25
 70
     1
102
RTVSPropertyOp26
 70
     1
102
RTVSPropertyOp27
 70
     1
102
RTVSPropertyOp28
 70
     1
102
RTVSPropertyOp29
 70
     1
102
RTVSPropertyOp30
 70
     1
102
RTVSPropertyOp31
 70
     1
102
RTVSPropertyOp32
 70
     1
102
RTVSPropertyOp33
 70
     1
102
RTVSPropertyOp34
 70
     1
102
RTVSPropertyOp35
 70
     1
102
RTVSPropertyOp36
 70
     1
102
RTVSPropertyOp37
 70
     1
102
RTVSPropertyOp38
 70
     1
102
RTVSPropertyOp39
 70
     1
102
RTVSPropertyOp40
 70
     1
102
RTVSPropertyOp41
 70
     1
102
RTVSPropertyOp42
 70
     1
102
RTVSPropertyOp43
 70
     1
102
RTVSPropertyOp44
 70
     1
102
RTVSPropertyOp45
 70
     1
102
RTVSPropertyOp46
 70
     1
102
RTVSPropertyOp47
 70
     1
102
RTVSPropertyOp48
 70
     1
102
RTVSPropertyOp49
 70
     1
102
RTVSPropertyOp50
 70
     1
102
RTVSPropertyOp51
 70
     0
102
RTVSPropertyOp52
 70
     0
102
RTVSPropertyOp53
 70
     1
102
RTVSPropertyOp54
 70
     1
102
RTVSPropertyOp55
 70
     1
102
RTVSPropertyOp56
 70
     1
102
RTVSPropertyOp57
 70
     1
102
RTVSPost2010Prop28
280
     0
102
RTVSPost2010PropOp28
 70
     1
102
RTVSPost2010Prop29
280
     1
102
RTVSPost2010PropOp29
 70
     1
102
RTVSPost2010Prop30
280
     1
102
RTVSPost2010PropOp30
 70
     1
102
RTVSPost2010Prop31
280
     0
102
RTVSPost2010PropOp31
 70
     1
102
RTVSPost2010Prop32
280
     0
102
RTVSPost2010PropOp32
 70
     1
102
RTVSPost2010Prop33
280
     0
102
RTVSPost2010PropOp33
 70
     1
102
RTVSPost2010Prop34
280
     0
102
RTVSPost2010PropOp34
 70
     1
102
RTVSPost2010Prop35
280
     0
102
RTVSPost2010PropOp35
 70
     1
102
RTVSPost2010Prop36
280
     0
102
RTVSPost2010PropOp36
 70
     1
102
RTVSPost2010Prop37
 90
       50
102
RTVSPost2010PropOp37
 70
     1
102
RTVSPost2010Prop38
140
0.0
102
RTVSPost2010PropOp38
 70
     1
102
RTVSPost2010Prop39
140
1.0
102
RTVSPost2010PropOp39
 70
     1
102
RTVSPost2010Prop40
 90
        0
102
RTVSPost2010PropOp40
 70
     1
102
RTVSPost2010Prop41ColorIndex
 90
       18
102
RTVSPost2010Prop41ColorRGB
 90
        0
102
RTVSPost2010PropOp41
 70
     1
102
RTVSPost2010Prop42
 90
       50
102
RTVSPost2010PropOp42
 70
     1
102
RTVSPost2010Prop43
 90
        3
102
RTVSPost2010PropOp43
 70
     1
102
RTVSPost2010Prop44ColorIndex
 90
        5
102
RTVSPost2010Prop44ColorRGB
 90
      255
102
RTVSPost2010PropOp44
 70
     1
102
RTVSPost2010Prop45
280
     0
102
RTVSPost2010PropOp45
 70
     1
102
RTVSPost2010Prop46
 90
       50
102
RTVSPost2010PropOp46
 70
     1
102
RTVSPost2010Prop47
 90
       50
102
RTVSPost2010PropOp47
 70
     1
102
RTVSPost2010Prop48
 90
       50
102
RTVSPost2010PropOp48
 70
     1
102
RTVSPost2010Prop49
280
     0
102
RTVSPost2010PropOp49
 70
     1
102
RTVSPost2010Prop50
 90
       50
102
RTVSPost2010PropOp50
 70
     1
102
RTVSPost2010Prop51ColorIndex
 90
      256
102
RTVSPost2010Prop51ColorRGB
 90
-16777216
102
RTVSPost2010PropOp51
 70
     0
102
RTVSPost2010Prop52
140
1.0
102
RTVSPost2010PropOp52
 70
     0
102
RTVSPost2010Prop53
 90
        2
102
RTVSPost2010PropOp53
 70
     1
102
RTVSPost2010Prop54
  1
strokes_ogs.tif
102
RTVSPost2010PropOp54
 70
     1
102
RTVSPost2010Prop55
280
     0
102
RTVSPost2010PropOp55
 70
     1
102
RTVSPost2010Prop56
140
1.0
102
RTVSPost2010PropOp56
 70
     1
102
RTVSPost2010Prop57
140
1.0
102
RTVSPost2010PropOp57
 70
     1
  0
XRECORD
  5
42E
102
{ACAD_REACTORS
330
42D
102
}
330
42D
100
AcDbXrecord
280
     1
102
RTVSPropertyOp0
 70
     1
102
RTVSPropertyOp1
 70
     1
102
RTVSPropertyOp2
 70
     1
102
RTVSPropertyOp3
 70
     1
102
RTVSPropertyOp4
 70
     1
102
RTVSPropertyOp5
 70
     1
102
RTVSPropertyOp6
 70
     1
102
RTVSPropertyOp7
 70
     1
102
RTVSPropertyOp8
 70
     1
102
RTVSPropertyOp9
 70
     1
102
RTVSPropertyOp10
 70
     1
102
RTVSPropertyOp11
 70
     1
102
RTVSPropertyOp12
 70
     1
102
RTVSPropertyOp13
 70
     1
102
RTVSPropertyOp14
 70
     1
102
RTVSPropertyOp15
 70
     1
102
RTVSPropertyOp16
 70
     1
102
RTVSPropertyOp17
 70
     1
102
RTVSPropertyOp18
 70
     1
102
RTVSPropertyOp19
 70
     1
102
RTVSPropertyOp20
 70
     1
102
RTVSPropertyOp21
 70
     1
102
RTVSPropertyOp22
 70
     1
102
RTVSPropertyOp23
 70
     1
102
RTVSPropertyOp24
 70
     1
102
RTVSPropertyOp25
 70
     1
102
RTVSPropertyOp26
 70
     1
102
RTVSPropertyOp27
 70
     1
102
RTVSPropertyOp28
 70
     1
102
RTVSPropertyOp29
 70
     1
102
RTVSPropertyOp30
 70
     1
102
RTVSPropertyOp31
 70
     1
102
RTVSPropertyOp32
 70
     1
102
RTVSPropertyOp33
 70
     1
102
RTVSPropertyOp34
 70
     1
102
RTVSPropertyOp35
 70
     1
102
RTVSPropertyOp36
 70
     1
102
RTVSPropertyOp37
 70
     1
102
RTVSPropertyOp38
 70
     1
102
RTVSPropertyOp39
 70
     1
102
RTVSPropertyOp40
 70
     1
102
RTVSPropertyOp41
 70
     1
102
RTVSPropertyOp42
 70
     1
102
RTVSPropertyOp43
 70
     1
102
RTVSPropertyOp44
 70
     1
102
RTVSPropertyOp45
 70
     1
102
RTVSPropertyOp46
 70
     1
102
RTVSPropertyOp47
 70
     1
102
RTVSPropertyOp48
 70
     1
102
RTVSPropertyOp49
 70
     1
102
RTVSPropertyOp50
 70
     1
102
RTVSPropertyOp51
 70
     0
102
RTVSPropertyOp52
 70
     0
102
RTVSPropertyOp53
 70
     1
102
RTVSPropertyOp54
 70
     1
102
RTVSPropertyOp55
 70
     1
102
RTVSPropertyOp56
 70
     1
102
RTVSPropertyOp57
 70
     1
102
RTVSPost2010Prop28
280
     0
102
RTVSPost2010PropOp28
 70
     1
102
RTVSPost2010Prop29
280
     1
102
RTVSPost2010PropOp29
 70
     1
102
RTVSPost2010Prop30
280
     1
102
RTVSPost2010PropOp30
 70
     1
102
RTVSPost2010Prop31
280
     0
102
RTVSPost2010PropOp31
 70
     1
102
RTVSPost2010Prop32
280
     0
102
RTVSPost2010PropOp32
 70
     1
102
RTVSPost2010Prop33
280
     0
102
RTVSPost2010PropOp33
 70
     1
102
RTVSPost2010Prop34
280
     0
102
RTVSPost2010PropOp34
 70
     1
102
RTVSPost2010Prop35
280
     0
102
RTVSPost2010PropOp35
 70
     1
102
RTVSPost2010Prop36
280
     0
102
RTVSPost2010PropOp36
 70
     1
102
RTVSPost2010Prop37
 90
       50
102
RTVSPost2010PropOp37
 70
     1
102
RTVSPost2010Prop38
140
0.0
102
RTVSPost2010PropOp38
 70
     1
102
RTVSPost2010Prop39
140
1.0
102
RTVSPost2010PropOp39
 70
     1
102
RTVSPost2010Prop40
 90
        0
102
RTVSPost2010PropOp40
 70
     1
102
RTVSPost2010Prop41ColorIndex
 90
       18
102
RTVSPost2010Prop41ColorRGB
 90
        0
102
RTVSPost2010PropOp41
 70
     1
102
RTVSPost2010Prop42
 90
       50
102
RTVSPost2010PropOp42
 70
     1
102
RTVSPost2010Prop43
 90
        3
102
RTVSPost2010PropOp43
 70
     1
102
RTVSPost2010Prop44ColorIndex
 90
        5
102
RTVSPost2010Prop44ColorRGB
 90
      255
102
RTVSPost2010PropOp44
 70
     1
102
RTVSPost2010Prop45
280
     0
102
RTVSPost2010PropOp45
 70
     1
102
RTVSPost2010Prop46
 90
       50
102
RTVSPost2010PropOp46
 70
     1
102
RTVSPost2010Prop47
 90
       50
102
RTVSPost2010PropOp47
 70
     1
102
RTVSPost2010Prop48
 90
       50
102
RTVSPost2010PropOp48
 70
     1
102
RTVSPost2010Prop49
280
     0
102
RTVSPost2010PropOp49
 70
     1
102
RTVSPost2010Prop50
 90
       50
102
RTVSPost2010PropOp50
 70
     1
102
RTVSPost2010Prop51ColorIndex
 90
      256
102
RTVSPost2010Prop51ColorRGB
 90
-16777216
102
RTVSPost2010PropOp51
 70
     0
102
RTVSPost2010Prop52
140
1.0
102
RTVSPost2010PropOp52
 70
     0
102
RTVSPost2010Prop53
 90
        2
102
RTVSPost2010PropOp53
 70
     1
102
RTVSPost2010Prop54
  1
strokes_ogs.tif
102
RTVSPost2010PropOp54
 70
     1
102
RTVSPost2010Prop55
280
     0
102
RTVSPost2010PropOp55
 70
     1
102
RTVSPost2010Prop56
140
1.0
102
RTVSPost2010PropOp56
 70
     1
102
RTVSPost2010Prop57
140
1.0
102
RTVSPost2010PropOp57
 70
     1
  0
XRECORD
  5
430
102
{ACAD_REACTORS
330
42F
102
}
330
42F
100
AcDbXrecord
280
     1
102
RTVSPropertyOp0
 70
     1
102
RTVSPropertyOp1
 70
     1
102
RTVSPropertyOp2
 70
     1
102
RTVSPropertyOp3
 70
     1
102
RTVSPropertyOp4
 70
     1
102
RTVSPropertyOp5
 70
     1
102
RTVSPropertyOp6
 70
     1
102
RTVSPropertyOp7
 70
     1
102
RTVSPropertyOp8
 70
     1
102
RTVSPropertyOp9
 70
     1
102
RTVSPropertyOp10
 70
     1
102
RTVSPropertyOp11
 70
     1
102
RTVSPropertyOp12
 70
     1
102
RTVSPropertyOp13
 70
     1
102
RTVSPropertyOp14
 70
     1
102
RTVSPropertyOp15
 70
     1
102
RTVSPropertyOp16
 70
     1
102
RTVSPropertyOp17
 70
     1
102
RTVSPropertyOp18
 70
     1
102
RTVSPropertyOp19
 70
     1
102
RTVSPropertyOp20
 70
     1
102
RTVSPropertyOp21
 70
     1
102
RTVSPropertyOp22
 70
     1
102
RTVSPropertyOp23
 70
     1
102
RTVSPropertyOp24
 70
     1
102
RTVSPropertyOp25
 70
     1
102
RTVSPropertyOp26
 70
     1
102
RTVSPropertyOp27
 70
     1
102
RTVSPropertyOp28
 70
     1
102
RTVSPropertyOp29
 70
     1
102
RTVSPropertyOp30
 70
     1
102
RTVSPropertyOp31
 70
     1
102
RTVSPropertyOp32
 70
     1
102
RTVSPropertyOp33
 70
     1
102
RTVSPropertyOp34
 70
     1
102
RTVSPropertyOp35
 70
     1
102
RTVSPropertyOp36
 70
     1
102
RTVSPropertyOp37
 70
     1
102
RTVSPropertyOp38
 70
     1
102
RTVSPropertyOp39
 70
     1
102
RTVSPropertyOp40
 70
     1
102
RTVSPropertyOp41
 70
     1
102
RTVSPropertyOp42
 70
     1
102
RTVSPropertyOp43
 70
     1
102
RTVSPropertyOp44
 70
     1
102
RTVSPropertyOp45
 70
     1
102
RTVSPropertyOp46
 70
     1
102
RTVSPropertyOp47
 70
     1
102
RTVSPropertyOp48
 70
     1
102
RTVSPropertyOp49
 70
     1
102
RTVSPropertyOp50
 70
     1
102
RTVSPropertyOp51
 70
     0
102
RTVSPropertyOp52
 70
     0
102
RTVSPropertyOp53
 70
     1
102
RTVSPropertyOp54
 70
     1
102
RTVSPropertyOp55
 70
     1
102
RTVSPropertyOp56
 70
     1
102
RTVSPropertyOp57
 70
     1
102
RTVSPost2010Prop28
280
     0
102
RTVSPost2010PropOp28
 70
     1
102
RTVSPost2010Prop29
280
     1
102
RTVSPost2010PropOp29
 70
     1
102
RTVSPost2010Prop30
280
     1
102
RTVSPost2010PropOp30
 70
     1
102
RTVSPost2010Prop31
280
     0
102
RTVSPost2010PropOp31
 70
     1
102
RTVSPost2010Prop32
280
     0
102
RTVSPost2010PropOp32
 70
     1
102
RTVSPost2010Prop33
280
     0
102
RTVSPost2010PropOp33
 70
     1
102
RTVSPost2010Prop34
280
     0
102
RTVSPost2010PropOp34
 70
     1
102
RTVSPost2010Prop35
280
     0
102
RTVSPost2010PropOp35
 70
     1
102
RTVSPost2010Prop36
280
     0
102
RTVSPost2010PropOp36
 70
     1
102
RTVSPost2010Prop37
 90
       50
102
RTVSPost2010PropOp37
 70
     1
102
RTVSPost2010Prop38
140
0.0
102
RTVSPost2010PropOp38
 70
     1
102
RTVSPost2010Prop39
140
1.0
102
RTVSPost2010PropOp39
 70
     1
102
RTVSPost2010Prop40
 90
        0
102
RTVSPost2010PropOp40
 70
     1
102
RTVSPost2010Prop41ColorIndex
 90
       18
102
RTVSPost2010Prop41ColorRGB
 90
        0
102
RTVSPost2010PropOp41
 70
     1
102
RTVSPost2010Prop42
 90
       50
102
RTVSPost2010PropOp42
 70
     1
102
RTVSPost2010Prop43
 90
        3
102
RTVSPost2010PropOp43
 70
     1
102
RTVSPost2010Prop44ColorIndex
 90
        5
102
RTVSPost2010Prop44ColorRGB
 90
      255
102
RTVSPost2010PropOp44
 70
     1
102
RTVSPost2010Prop45
280
     0
102
RTVSPost2010PropOp45
 70
     1
102
RTVSPost2010Prop46
 90
       50
102
RTVSPost2010PropOp46
 70
     1
102
RTVSPost2010Prop47
 90
       50
102
RTVSPost2010PropOp47
 70
     1
102
RTVSPost2010Prop48
 90
       50
102
RTVSPost2010PropOp48
 70
     1
102
RTVSPost2010Prop49
280
     0
102
RTVSPost2010PropOp49
 70
     1
102
RTVSPost2010Prop50
 90
       50
102
RTVSPost2010PropOp50
 70
     1
102
RTVSPost2010Prop51ColorIndex
 90
      256
102
RTVSPost2010Prop51ColorRGB
 90
-16777216
102
RTVSPost2010PropOp51
 70
     0
102
RTVSPost2010Prop52
140
1.0
102
RTVSPost2010PropOp52
 70
     0
102
RTVSPost2010Prop53
 90
        2
102
RTVSPost2010PropOp53
 70
     1
102
RTVSPost2010Prop54
  1
strokes_ogs.tif
102
RTVSPost2010PropOp54
 70
     1
102
RTVSPost2010Prop55
280
     0
102
RTVSPost2010PropOp55
 70
     1
102
RTVSPost2010Prop56
140
1.0
102
RTVSPost2010PropOp56
 70
     1
102
RTVSPost2010Prop57
140
1.0
102
RTVSPost2010PropOp57
 70
     1
  0
XRECORD
  5
436
102
{ACAD_REACTORS
330
435
102
}
330
435
100
AcDbXrecord
280
     1
102
RTVSPropertyOp0
 70
     1
102
RTVSPropertyOp1
 70
     1
102
RTVSPropertyOp2
 70
     1
102
RTVSPropertyOp3
 70
     1
102
RTVSPropertyOp4
 70
     1
102
RTVSPropertyOp5
 70
     1
102
RTVSPropertyOp6
 70
     1
102
RTVSPropertyOp7
 70
     1
102
RTVSPropertyOp8
 70
     1
102
RTVSPropertyOp9
 70
     1
102
RTVSPropertyOp10
 70
     1
102
RTVSPropertyOp11
 70
     1
102
RTVSPropertyOp12
 70
     1
102
RTVSPropertyOp13
 70
     1
102
RTVSPropertyOp14
 70
     1
102
RTVSPropertyOp15
 70
     1
102
RTVSPropertyOp16
 70
     1
102
RTVSPropertyOp17
 70
     1
102
RTVSPropertyOp18
 70
     1
102
RTVSPropertyOp19
 70
     1
102
RTVSPropertyOp20
 70
     1
102
RTVSPropertyOp21
 70
     1
102
RTVSPropertyOp22
 70
     1
102
RTVSPropertyOp23
 70
     1
102
RTVSPropertyOp24
 70
     1
102
RTVSPropertyOp25
 70
     1
102
RTVSPropertyOp26
 70
     1
102
RTVSPropertyOp27
 70
     1
102
RTVSPropertyOp28
 70
     1
102
RTVSPropertyOp29
 70
     1
102
RTVSPropertyOp30
 70
     1
102
RTVSPropertyOp31
 70
     1
102
RTVSPropertyOp32
 70
     1
102
RTVSPropertyOp33
 70
     1
102
RTVSPropertyOp34
 70
     1
102
RTVSPropertyOp35
 70
     1
102
RTVSPropertyOp36
 70
     1
102
RTVSPropertyOp37
 70
     1
102
RTVSPropertyOp38
 70
     1
102
RTVSPropertyOp39
 70
     1
102
RTVSPropertyOp40
 70
     1
102
RTVSPropertyOp41
 70
     1
102
RTVSPropertyOp42
 70
     1
102
RTVSPropertyOp43
 70
     1
102
RTVSPropertyOp44
 70
     1
102
RTVSPropertyOp45
 70
     1
102
RTVSPropertyOp46
 70
     1
102
RTVSPropertyOp47
 70
     1
102
RTVSPropertyOp48
 70
     1
102
RTVSPropertyOp49
 70
     1
102
RTVSPropertyOp50
 70
     1
102
RTVSPropertyOp51
 70
     0
102
RTVSPropertyOp52
 70
     0
102
RTVSPropertyOp53
 70
     1
102
RTVSPropertyOp54
 70
     1
102
RTVSPropertyOp55
 70
     1
102
RTVSPropertyOp56
 70
     1
102
RTVSPropertyOp57
 70
     1
102
RTVSPost2010Prop28
280
     0
102
RTVSPost2010PropOp28
 70
     1
102
RTVSPost2010Prop29
280
     1
102
RTVSPost2010PropOp29
 70
     1
102
RTVSPost2010Prop30
280
     1
102
RTVSPost2010PropOp30
 70
     1
102
RTVSPost2010Prop31
280
     0
102
RTVSPost2010PropOp31
 70
     1
102
RTVSPost2010Prop32
280
     0
102
RTVSPost2010PropOp32
 70
     1
102
RTVSPost2010Prop33
280
     0
102
RTVSPost2010PropOp33
 70
     1
102
RTVSPost2010Prop34
280
     0
102
RTVSPost2010PropOp34
 70
     1
102
RTVSPost2010Prop35
280
     0
102
RTVSPost2010PropOp35
 70
     1
102
RTVSPost2010Prop36
280
     0
102
RTVSPost2010PropOp36
 70
     1
102
RTVSPost2010Prop37
 90
       50
102
RTVSPost2010PropOp37
 70
     1
102
RTVSPost2010Prop38
140
0.0
102
RTVSPost2010PropOp38
 70
     1
102
RTVSPost2010Prop39
140
1.0
102
RTVSPost2010PropOp39
 70
     1
102
RTVSPost2010Prop40
 90
        0
102
RTVSPost2010PropOp40
 70
     1
102
RTVSPost2010Prop41ColorIndex
 90
       18
102
RTVSPost2010Prop41ColorRGB
 90
        0
102
RTVSPost2010PropOp41
 70
     1
102
RTVSPost2010Prop42
 90
       50
102
RTVSPost2010PropOp42
 70
     1
102
RTVSPost2010Prop43
 90
        3
102
RTVSPost2010PropOp43
 70
     1
102
RTVSPost2010Prop44ColorIndex
 90
        5
102
RTVSPost2010Prop44ColorRGB
 90
      255
102
RTVSPost2010PropOp44
 70
     1
102
RTVSPost2010Prop45
280
     0
102
RTVSPost2010PropOp45
 70
     1
102
RTVSPost2010Prop46
 90
       50
102
RTVSPost2010PropOp46
 70
     1
102
RTVSPost2010Prop47
 90
       50
102
RTVSPost2010PropOp47
 70
     1
102
RTVSPost2010Prop48
 90
       50
102
RTVSPost2010PropOp48
 70
     1
102
RTVSPost2010Prop49
280
     0
102
RTVSPost2010PropOp49
 70
     1
102
RTVSPost2010Prop50
 90
       50
102
RTVSPost2010PropOp50
 70
     1
102
RTVSPost2010Prop51ColorIndex
 90
      256
102
RTVSPost2010Prop51ColorRGB
 90
-16777216
102
RTVSPost2010PropOp51
 70
     0
102
RTVSPost2010Prop52
140
1.0
102
RTVSPost2010PropOp52
 70
     0
102
RTVSPost2010Prop53
 90
        2
102
RTVSPost2010PropOp53
 70
     1
102
RTVSPost2010Prop54
  1
strokes_ogs.tif
102
RTVSPost2010PropOp54
 70
     1
102
RTVSPost2010Prop55
280
     0
102
RTVSPost2010PropOp55
 70
     1
102
RTVSPost2010Prop56
140
1.0
102
RTVSPost2010PropOp56
 70
     1
102
RTVSPost2010Prop57
140
1.0
102
RTVSPost2010PropOp57
 70
     1
  0
XRECORD
  5
44A
102
{ACAD_REACTORS
330
449
102
}
330
449
100
AcDbXrecord
280
     1
102
RTVSPropertyOp0
 70
     0
102
RTVSPropertyOp1
 70
     0
102
RTVSPropertyOp2
 70
     0
102
RTVSPropertyOp3
 70
     0
102
RTVSPropertyOp4
 70
     0
102
RTVSPropertyOp5
 70
     0
102
RTVSPropertyOp6
 70
     0
102
RTVSPropertyOp7
 70
     0
102
RTVSPropertyOp8
 70
     0
102
RTVSPropertyOp9
 70
     0
102
RTVSPropertyOp10
 70
     0
102
RTVSPropertyOp11
 70
     0
102
RTVSPropertyOp12
 70
     0
102
RTVSPropertyOp13
 70
     0
102
RTVSPropertyOp14
 70
     2
102
RTVSPropertyOp15
 70
     0
102
RTVSPropertyOp16
 70
     0
102
RTVSPropertyOp17
 70
     0
102
RTVSPropertyOp18
 70
     0
102
RTVSPropertyOp19
 70
     0
102
RTVSPropertyOp20
 70
     0
102
RTVSPropertyOp21
 70
     0
102
RTVSPropertyOp22
 70
     0
102
RTVSPropertyOp23
 70
     0
102
RTVSPropertyOp24
 70
     0
102
RTVSPropertyOp25
 70
     0
102
RTVSPropertyOp26
 70
     0
102
RTVSPropertyOp27
 70
     0
102
RTVSPropertyOp28
 70
     0
102
RTVSPropertyOp29
 70
     0
102
RTVSPropertyOp30
 70
     0
102
RTVSPropertyOp31
 70
     0
102
RTVSPropertyOp32
 70
     0
102
RTVSPropertyOp33
 70
     0
102
RTVSPropertyOp34
 70
     0
102
RTVSPropertyOp35
 70
     0
102
RTVSPropertyOp36
 70
     0
102
RTVSPropertyOp37
 70
     0
102
RTVSPropertyOp38
 70
     0
102
RTVSPropertyOp39
 70
     0
102
RTVSPropertyOp40
 70
     0
102
RTVSPropertyOp41
 70
     0
102
RTVSPropertyOp42
 70
     0
102
RTVSPropertyOp43
 70
     0
102
RTVSPropertyOp44
 70
     0
102
RTVSPropertyOp45
 70
     0
102
RTVSPropertyOp46
 70
     0
102
RTVSPropertyOp47
 70
     0
102
RTVSPropertyOp48
 70
     0
102
RTVSPropertyOp49
 70
     0
102
RTVSPropertyOp50
 70
     0
102
RTVSPropertyOp51
 70
     0
102
RTVSPropertyOp52
 70
     0
102
RTVSPropertyOp53
 70
     0
102
RTVSPropertyOp54
 70
     0
102
RTVSPropertyOp55
 70
     0
102
RTVSPropertyOp56
 70
     0
102
RTVSPropertyOp57
 70
     0
102
RTVSPost2010Prop28
280
     0
102
RTVSPost2010PropOp28
 70
     0
102
RTVSPost2010Prop29
280
     1
102
RTVSPost2010PropOp29
 70
     0
102
RTVSPost2010Prop30
280
     1
102
RTVSPost2010PropOp30
 70
     0
102
RTVSPost2010Prop31
280
     0
102
RTVSPost2010PropOp31
 70
     0
102
RTVSPost2010Prop32
280
     0
102
RTVSPost2010PropOp32
 70
     0
102
RTVSPost2010Prop33
280
     0
102
RTVSPost2010PropOp33
 70
     0
102
RTVSPost2010Prop34
280
     0
102
RTVSPost2010PropOp34
 70
     0
102
RTVSPost2010Prop35
280
     0
102
RTVSPost2010PropOp35
 70
     0
102
RTVSPost2010Prop36
280
     0
102
RTVSPost2010PropOp36
 70
     0
102
RTVSPost2010Prop37
 90
       50
102
RTVSPost2010PropOp37
 70
     0
102
RTVSPost2010Prop38
140
0.0
102
RTVSPost2010PropOp38
 70
     0
102
RTVSPost2010Prop39
140
1.0
102
RTVSPost2010PropOp39
 70
     0
102
RTVSPost2010Prop40
 90
        0
102
RTVSPost2010PropOp40
 70
     0
102
RTVSPost2010Prop41ColorIndex
 90
       18
102
RTVSPost2010Prop41ColorRGB
 90
        0
102
RTVSPost2010PropOp41
 70
     0
102
RTVSPost2010Prop42
 90
       50
102
RTVSPost2010PropOp42
 70
     0
102
RTVSPost2010Prop43
 90
        3
102
RTVSPost2010PropOp43
 70
     0
102
RTVSPost2010Prop44ColorIndex
 90
        5
102
RTVSPost2010Prop44ColorRGB
 90
      255
102
RTVSPost2010PropOp44
 70
     0
102
RTVSPost2010Prop45
280
     0
102
RTVSPost2010PropOp45
 70
     0
102
RTVSPost2010Prop46
 90
       50
102
RTVSPost2010PropOp46
 70
     0
102
RTVSPost2010Prop47
 90
       50
102
RTVSPost2010PropOp47
 70
     0
102
RTVSPost2010Prop48
 90
       50
102
RTVSPost2010PropOp48
 70
     0
102
RTVSPost2010Prop49
280
     0
102
RTVSPost2010PropOp49
 70
     0
102
RTVSPost2010Prop50
 90
       50
102
RTVSPost2010PropOp50
 70
     0
102
RTVSPost2010Prop51ColorIndex
 90
      256
102
RTVSPost2010Prop51ColorRGB
 90
-16777216
102
RTVSPost2010PropOp51
 70
     0
102
RTVSPost2010Prop52
140
1.0
102
RTVSPost2010PropOp52
 70
     0
102
RTVSPost2010Prop53
 90
        2
102
RTVSPost2010PropOp53
 70
     0
102
RTVSPost2010Prop54
  1
strokes_ogs.tif
102
RTVSPost2010PropOp54
 70
     0
102
RTVSPost2010Prop55
280
     0
102
RTVSPost2010PropOp55
 70
     0
102
RTVSPost2010Prop56
140
1.0
102
RTVSPost2010PropOp56
 70
     0
102
RTVSPost2010Prop57
140
1.0
102
RTVSPost2010PropOp57
 70
     0
  0
XRECORD
  5
444
102
{ACAD_REACTORS
330
443
102
}
330
443
100
AcDbXrecord
280
     1
102
RTVSPropertyOp0
 70
     1
102
RTVSPropertyOp1
 70
     1
102
RTVSPropertyOp2
 70
     1
102
RTVSPropertyOp3
 70
     1
102
RTVSPropertyOp4
 70
     1
102
RTVSPropertyOp5
 70
     1
102
RTVSPropertyOp6
 70
     1
102
RTVSPropertyOp7
 70
     1
102
RTVSPropertyOp8
 70
     1
102
RTVSPropertyOp9
 70
     1
102
RTVSPropertyOp10
 70
     1
102
RTVSPropertyOp11
 70
     1
102
RTVSPropertyOp12
 70
     1
102
RTVSPropertyOp13
 70
     1
102
RTVSPropertyOp14
 70
     1
102
RTVSPropertyOp15
 70
     1
102
RTVSPropertyOp16
 70
     1
102
RTVSPropertyOp17
 70
     1
102
RTVSPropertyOp18
 70
     1
102
RTVSPropertyOp19
 70
     1
102
RTVSPropertyOp20
 70
     1
102
RTVSPropertyOp21
 70
     1
102
RTVSPropertyOp22
 70
     1
102
RTVSPropertyOp23
 70
     1
102
RTVSPropertyOp24
 70
     1
102
RTVSPropertyOp25
 70
     1
102
RTVSPropertyOp26
 70
     1
102
RTVSPropertyOp27
 70
     1
102
RTVSPropertyOp28
 70
     1
102
RTVSPropertyOp29
 70
     1
102
RTVSPropertyOp30
 70
     1
102
RTVSPropertyOp31
 70
     1
102
RTVSPropertyOp32
 70
     1
102
RTVSPropertyOp33
 70
     1
102
RTVSPropertyOp34
 70
     1
102
RTVSPropertyOp35
 70
     1
102
RTVSPropertyOp36
 70
     1
102
RTVSPropertyOp37
 70
     1
102
RTVSPropertyOp38
 70
     1
102
RTVSPropertyOp39
 70
     1
102
RTVSPropertyOp40
 70
     1
102
RTVSPropertyOp41
 70
     1
102
RTVSPropertyOp42
 70
     1
102
RTVSPropertyOp43
 70
     1
102
RTVSPropertyOp44
 70
     1
102
RTVSPropertyOp45
 70
     1
102
RTVSPropertyOp46
 70
     1
102
RTVSPropertyOp47
 70
     1
102
RTVSPropertyOp48
 70
     1
102
RTVSPropertyOp49
 70
     1
102
RTVSPropertyOp50
 70
     1
102
RTVSPropertyOp51
 70
     0
102
RTVSPropertyOp52
 70
     0
102
RTVSPropertyOp53
 70
     1
102
RTVSPropertyOp54
 70
     1
102
RTVSPropertyOp55
 70
     1
102
RTVSPropertyOp56
 70
     1
102
RTVSPropertyOp57
 70
     1
102
RTVSPost2010Prop28
280
     0
102
RTVSPost2010PropOp28
 70
     1
102
RTVSPost2010Prop29
280
     1
102
RTVSPost2010PropOp29
 70
     1
102
RTVSPost2010Prop30
280
     1
102
RTVSPost2010PropOp30
 70
     1
102
RTVSPost2010Prop31
280
     0
102
RTVSPost2010PropOp31
 70
     1
102
RTVSPost2010Prop32
280
     0
102
RTVSPost2010PropOp32
 70
     1
102
RTVSPost2010Prop33
280
     0
102
RTVSPost2010PropOp33
 70
     1
102
RTVSPost2010Prop34
280
     0
102
RTVSPost2010PropOp34
 70
     1
102
RTVSPost2010Prop35
280
     0
102
RTVSPost2010PropOp35
 70
     1
102
RTVSPost2010Prop36
280
     0
102
RTVSPost2010PropOp36
 70
     1
102
RTVSPost2010Prop37
 90
       50
102
RTVSPost2010PropOp37
 70
     1
102
RTVSPost2010Prop38
140
0.0
102
RTVSPost2010PropOp38
 70
     1
102
RTVSPost2010Prop39
140
1.0
102
RTVSPost2010PropOp39
 70
     1
102
RTVSPost2010Prop40
 90
        0
102
RTVSPost2010PropOp40
 70
     1
102
RTVSPost2010Prop41ColorIndex
 90
       18
102
RTVSPost2010Prop41ColorRGB
 90
        0
102
RTVSPost2010PropOp41
 70
     1
102
RTVSPost2010Prop42
 90
       50
102
RTVSPost2010PropOp42
 70
     1
102
RTVSPost2010Prop43
 90
        3
102
RTVSPost2010PropOp43
 70
     1
102
RTVSPost2010Prop44ColorIndex
 90
        5
102
RTVSPost2010Prop44ColorRGB
 90
      255
102
RTVSPost2010PropOp44
 70
     1
102
RTVSPost2010Prop45
280
     0
102
RTVSPost2010PropOp45
 70
     1
102
RTVSPost2010Prop46
 90
       50
102
RTVSPost2010PropOp46
 70
     1
102
RTVSPost2010Prop47
 90
       50
102
RTVSPost2010PropOp47
 70
     1
102
RTVSPost2010Prop48
 90
       50
102
RTVSPost2010PropOp48
 70
     1
102
RTVSPost2010Prop49
280
     0
102
RTVSPost2010PropOp49
 70
     1
102
RTVSPost2010Prop50
 90
       50
102
RTVSPost2010PropOp50
 70
     1
102
RTVSPost2010Prop51ColorIndex
 90
      256
102
RTVSPost2010Prop51ColorRGB
 90
-16777216
102
RTVSPost2010PropOp51
 70
     0
102
RTVSPost2010Prop52
140
1.0
102
RTVSPost2010PropOp52
 70
     0
102
RTVSPost2010Prop53
 90
        2
102
RTVSPost2010PropOp53
 70
     1
102
RTVSPost2010Prop54
  1
strokes_ogs.tif
102
RTVSPost2010PropOp54
 70
     1
102
RTVSPost2010Prop55
280
     0
102
RTVSPost2010PropOp55
 70
     1
102
RTVSPost2010Prop56
140
1.0
102
RTVSPost2010PropOp56
 70
     1
102
RTVSPost2010Prop57
140
1.0
102
RTVSPost2010PropOp57
 70
     1
  0
XRECORD
  5
44C
102
{ACAD_REACTORS
330
44B
102
}
330
44B
100
AcDbXrecord
280
     1
102
RTVSPropertyOp0
 70
     0
102
RTVSPropertyOp1
 70
     0
102
RTVSPropertyOp2
 70
     0
102
RTVSPropertyOp3
 70
     0
102
RTVSPropertyOp4
 70
     0
102
RTVSPropertyOp5
 70
     0
102
RTVSPropertyOp6
 70
     0
102
RTVSPropertyOp7
 70
     0
102
RTVSPropertyOp8
 70
     0
102
RTVSPropertyOp9
 70
     0
102
RTVSPropertyOp10
 70
     0
102
RTVSPropertyOp11
 70
     0
102
RTVSPropertyOp12
 70
     0
102
RTVSPropertyOp13
 70
     0
102
RTVSPropertyOp14
 70
     2
102
RTVSPropertyOp15
 70
     0
102
RTVSPropertyOp16
 70
     0
102
RTVSPropertyOp17
 70
     0
102
RTVSPropertyOp18
 70
     0
102
RTVSPropertyOp19
 70
     0
102
RTVSPropertyOp20
 70
     0
102
RTVSPropertyOp21
 70
     0
102
RTVSPropertyOp22
 70
     0
102
RTVSPropertyOp23
 70
     0
102
RTVSPropertyOp24
 70
     0
102
RTVSPropertyOp25
 70
     0
102
RTVSPropertyOp26
 70
     0
102
RTVSPropertyOp27
 70
     0
102
RTVSPropertyOp28
 70
     0
102
RTVSPropertyOp29
 70
     0
102
RTVSPropertyOp30
 70
     0
102
RTVSPropertyOp31
 70
     0
102
RTVSPropertyOp32
 70
     0
102
RTVSPropertyOp33
 70
     0
102
RTVSPropertyOp34
 70
     0
102
RTVSPropertyOp35
 70
     0
102
RTVSPropertyOp36
 70
     0
102
RTVSPropertyOp37
 70
     0
102
RTVSPropertyOp38
 70
     0
102
RTVSPropertyOp39
 70
     0
102
RTVSPropertyOp40
 70
     0
102
RTVSPropertyOp41
 70
     0
102
RTVSPropertyOp42
 70
     0
102
RTVSPropertyOp43
 70
     0
102
RTVSPropertyOp44
 70
     0
102
RTVSPropertyOp45
 70
     0
102
RTVSPropertyOp46
 70
     0
102
RTVSPropertyOp47
 70
     0
102
RTVSPropertyOp48
 70
     0
102
RTVSPropertyOp49
 70
     0
102
RTVSPropertyOp50
 70
     0
102
RTVSPropertyOp51
 70
     0
102
RTVSPropertyOp52
 70
     0
102
RTVSPropertyOp53
 70
     0
102
RTVSPropertyOp54
 70
     0
102
RTVSPropertyOp55
 70
     0
102
RTVSPropertyOp56
 70
     0
102
RTVSPropertyOp57
 70
     0
102
RTVSPost2010Prop28
280
     0
102
RTVSPost2010PropOp28
 70
     0
102
RTVSPost2010Prop29
280
     1
102
RTVSPost2010PropOp29
 70
     0
102
RTVSPost2010Prop30
280
     1
102
RTVSPost2010PropOp30
 70
     0
102
RTVSPost2010Prop31
280
     0
102
RTVSPost2010PropOp31
 70
     0
102
RTVSPost2010Prop32
280
     0
102
RTVSPost2010PropOp32
 70
     0
102
RTVSPost2010Prop33
280
     0
102
RTVSPost2010PropOp33
 70
     0
102
RTVSPost2010Prop34
280
     0
102
RTVSPost2010PropOp34
 70
     0
102
RTVSPost2010Prop35
280
     0
102
RTVSPost2010PropOp35
 70
     0
102
RTVSPost2010Prop36
280
     0
102
RTVSPost2010PropOp36
 70
     0
102
RTVSPost2010Prop37
 90
       50
102
RTVSPost2010PropOp37
 70
     0
102
RTVSPost2010Prop38
140
0.0
102
RTVSPost2010PropOp38
 70
     0
102
RTVSPost2010Prop39
140
1.0
102
RTVSPost2010PropOp39
 70
     0
102
RTVSPost2010Prop40
 90
        0
102
RTVSPost2010PropOp40
 70
     0
102
RTVSPost2010Prop41ColorIndex
 90
       18
102
RTVSPost2010Prop41ColorRGB
 90
        0
102
RTVSPost2010PropOp41
 70
     0
102
RTVSPost2010Prop42
 90
       50
102
RTVSPost2010PropOp42
 70
     0
102
RTVSPost2010Prop43
 90
        3
102
RTVSPost2010PropOp43
 70
     0
102
RTVSPost2010Prop44ColorIndex
 90
        5
102
RTVSPost2010Prop44ColorRGB
 90
      255
102
RTVSPost2010PropOp44
 70
     0
102
RTVSPost2010Prop45
280
     0
102
RTVSPost2010PropOp45
 70
     0
102
RTVSPost2010Prop46
 90
       50
102
RTVSPost2010PropOp46
 70
     0
102
RTVSPost2010Prop47
 90
       50
102
RTVSPost2010PropOp47
 70
     0
102
RTVSPost2010Prop48
 90
       50
102
RTVSPost2010PropOp48
 70
     0
102
RTVSPost2010Prop49
280
     0
102
RTVSPost2010PropOp49
 70
     0
102
RTVSPost2010Prop50
 90
       50
102
RTVSPost2010PropOp50
 70
     0
102
RTVSPost2010Prop51ColorIndex
 90
      256
102
RTVSPost2010Prop51ColorRGB
 90
-16777216
102
RTVSPost2010PropOp51
 70
     0
102
RTVSPost2010Prop52
140
1.0
102
RTVSPost2010PropOp52
 70
     0
102
RTVSPost2010Prop53
 90
        2
102
RTVSPost2010PropOp53
 70
     0
102
RTVSPost2010Prop54
  1
strokes_ogs.tif
102
RTVSPost2010PropOp54
 70
     0
102
RTVSPost2010Prop55
280
     0
102
RTVSPost2010PropOp55
 70
     0
102
RTVSPost2010Prop56
140
1.0
102
RTVSPost2010PropOp56
 70
     0
102
RTVSPost2010Prop57
140
1.0
102
RTVSPost2010PropOp57
 70
     0
  0
XRECORD
  5
43A
102
{ACAD_REACTORS
330
439
102
}
330
439
100
AcDbXrecord
280
     1
102
RTVSPropertyOp0
 70
     1
102
RTVSPropertyOp1
 70
     1
102
RTVSPropertyOp2
 70
     1
102
RTVSPropertyOp3
 70
     1
102
RTVSPropertyOp4
 70
     1
102
RTVSPropertyOp5
 70
     1
102
RTVSPropertyOp6
 70
     1
102
RTVSPropertyOp7
 70
     1
102
RTVSPropertyOp8
 70
     1
102
RTVSPropertyOp9
 70
     1
102
RTVSPropertyOp10
 70
     1
102
RTVSPropertyOp11
 70
     1
102
RTVSPropertyOp12
 70
     1
102
RTVSPropertyOp13
 70
     1
102
RTVSPropertyOp14
 70
     1
102
RTVSPropertyOp15
 70
     1
102
RTVSPropertyOp16
 70
     1
102
RTVSPropertyOp17
 70
     1
102
RTVSPropertyOp18
 70
     1
102
RTVSPropertyOp19
 70
     1
102
RTVSPropertyOp20
 70
     1
102
RTVSPropertyOp21
 70
     1
102
RTVSPropertyOp22
 70
     1
102
RTVSPropertyOp23
 70
     1
102
RTVSPropertyOp24
 70
     1
102
RTVSPropertyOp25
 70
     1
102
RTVSPropertyOp26
 70
     1
102
RTVSPropertyOp27
 70
     1
102
RTVSPropertyOp28
 70
     1
102
RTVSPropertyOp29
 70
     1
102
RTVSPropertyOp30
 70
     1
102
RTVSPropertyOp31
 70
     1
102
RTVSPropertyOp32
 70
     1
102
RTVSPropertyOp33
 70
     1
102
RTVSPropertyOp34
 70
     1
102
RTVSPropertyOp35
 70
     1
102
RTVSPropertyOp36
 70
     1
102
RTVSPropertyOp37
 70
     1
102
RTVSPropertyOp38
 70
     1
102
RTVSPropertyOp39
 70
     1
102
RTVSPropertyOp40
 70
     1
102
RTVSPropertyOp41
 70
     1
102
RTVSPropertyOp42
 70
     1
102
RTVSPropertyOp43
 70
     1
102
RTVSPropertyOp44
 70
     1
102
RTVSPropertyOp45
 70
     1
102
RTVSPropertyOp46
 70
     1
102
RTVSPropertyOp47
 70
     1
102
RTVSPropertyOp48
 70
     1
102
RTVSPropertyOp49
 70
     1
102
RTVSPropertyOp50
 70
     1
102
RTVSPropertyOp51
 70
     0
102
RTVSPropertyOp52
 70
     0
102
RTVSPropertyOp53
 70
     1
102
RTVSPropertyOp54
 70
     1
102
RTVSPropertyOp55
 70
     1
102
RTVSPropertyOp56
 70
     1
102
RTVSPropertyOp57
 70
     1
102
RTVSPost2010Prop28
280
     0
102
RTVSPost2010PropOp28
 70
     1
102
RTVSPost2010Prop29
280
     1
102
RTVSPost2010PropOp29
 70
     1
102
RTVSPost2010Prop30
280
     1
102
RTVSPost2010PropOp30
 70
     1
102
RTVSPost2010Prop31
280
     0
102
RTVSPost2010PropOp31
 70
     1
102
RTVSPost2010Prop32
280
     0
102
RTVSPost2010PropOp32
 70
     1
102
RTVSPost2010Prop33
280
     0
102
RTVSPost2010PropOp33
 70
     1
102
RTVSPost2010Prop34
280
     0
102
RTVSPost2010PropOp34
 70
     1
102
RTVSPost2010Prop35
280
     0
102
RTVSPost2010PropOp35
 70
     1
102
RTVSPost2010Prop36
280
     0
102
RTVSPost2010PropOp36
 70
     1
102
RTVSPost2010Prop37
 90
       50
102
RTVSPost2010PropOp37
 70
     1
102
RTVSPost2010Prop38
140
0.0
102
RTVSPost2010PropOp38
 70
     1
102
RTVSPost2010Prop39
140
1.0
102
RTVSPost2010PropOp39
 70
     1
102
RTVSPost2010Prop40
 90
        0
102
RTVSPost2010PropOp40
 70
     1
102
RTVSPost2010Prop41ColorIndex
 90
       18
102
RTVSPost2010Prop41ColorRGB
 90
        0
102
RTVSPost2010PropOp41
 70
     1
102
RTVSPost2010Prop42
 90
       50
102
RTVSPost2010PropOp42
 70
     1
102
RTVSPost2010Prop43
 90
        3
102
RTVSPost2010PropOp43
 70
     1
102
RTVSPost2010Prop44ColorIndex
 90
        5
102
RTVSPost2010Prop44ColorRGB
 90
      255
102
RTVSPost2010PropOp44
 70
     1
102
RTVSPost2010Prop45
280
     0
102
RTVSPost2010PropOp45
 70
     1
102
RTVSPost2010Prop46
 90
       50
102
RTVSPost2010PropOp46
 70
     1
102
RTVSPost2010Prop47
 90
       50
102
RTVSPost2010PropOp47
 70
     1
102
RTVSPost2010Prop48
 90
       50
102
RTVSPost2010PropOp48
 70
     1
102
RTVSPost2010Prop49
280
     0
102
RTVSPost2010PropOp49
 70
     1
102
RTVSPost2010Prop50
 90
       50
102
RTVSPost2010PropOp50
 70
     1
102
RTVSPost2010Prop51ColorIndex
 90
      256
102
RTVSPost2010Prop51ColorRGB
 90
-16777216
102
RTVSPost2010PropOp51
 70
     0
102
RTVSPost2010Prop52
140
1.0
102
RTVSPost2010PropOp52
 70
     0
102
RTVSPost2010Prop53
 90
        2
102
RTVSPost2010PropOp53
 70
     1
102
RTVSPost2010Prop54
  1
strokes_ogs.tif
102
RTVSPost2010PropOp54
 70
     1
102
RTVSPost2010Prop55
280
     0
102
RTVSPost2010PropOp55
 70
     1
102
RTVSPost2010Prop56
140
1.0
102
RTVSPost2010PropOp56
 70
     1
102
RTVSPost2010Prop57
140
1.0
102
RTVSPost2010PropOp57
 70
     1
  0
XRECORD
  5
458
102
{ACAD_REACTORS
330
457
102
}
330
457
100
AcDbXrecord
280
     1
102
RTVSPropertyOp0
 70
     1
102
RTVSPropertyOp1
 70
     1
102
RTVSPropertyOp2
 70
     1
102
RTVSPropertyOp3
 70
     1
102
RTVSPropertyOp4
 70
     1
102
RTVSPropertyOp5
 70
     1
102
RTVSPropertyOp6
 70
     1
102
RTVSPropertyOp7
 70
     1
102
RTVSPropertyOp8
 70
     1
102
RTVSPropertyOp9
 70
     1
102
RTVSPropertyOp10
 70
     1
102
RTVSPropertyOp11
 70
     1
102
RTVSPropertyOp12
 70
     1
102
RTVSPropertyOp13
 70
     1
102
RTVSPropertyOp14
 70
     1
102
RTVSPropertyOp15
 70
     1
102
RTVSPropertyOp16
 70
     1
102
RTVSPropertyOp17
 70
     1
102
RTVSPropertyOp18
 70
     1
102
RTVSPropertyOp19
 70
     1
102
RTVSPropertyOp20
 70
     1
102
RTVSPropertyOp21
 70
     1
102
RTVSPropertyOp22
 70
     1
102
RTVSPropertyOp23
 70
     1
102
RTVSPropertyOp24
 70
     1
102
RTVSPropertyOp25
 70
     1
102
RTVSPropertyOp26
 70
     1
102
RTVSPropertyOp27
 70
     1
102
RTVSPropertyOp28
 70
     1
102
RTVSPropertyOp29
 70
     1
102
RTVSPropertyOp30
 70
     1
102
RTVSPropertyOp31
 70
     1
102
RTVSPropertyOp32
 70
     1
102
RTVSPropertyOp33
 70
     1
102
RTVSPropertyOp34
 70
     1
102
RTVSPropertyOp35
 70
     1
102
RTVSPropertyOp36
 70
     1
102
RTVSPropertyOp37
 70
     1
102
RTVSPropertyOp38
 70
     1
102
RTVSPropertyOp39
 70
     1
102
RTVSPropertyOp40
 70
     1
102
RTVSPropertyOp41
 70
     1
102
RTVSPropertyOp42
 70
     1
102
RTVSPropertyOp43
 70
     1
102
RTVSPropertyOp44
 70
     1
102
RTVSPropertyOp45
 70
     1
102
RTVSPropertyOp46
 70
     1
102
RTVSPropertyOp47
 70
     1
102
RTVSPropertyOp48
 70
     1
102
RTVSPropertyOp49
 70
     1
102
RTVSPropertyOp50
 70
     1
102
RTVSPropertyOp51
 70
     0
102
RTVSPropertyOp52
 70
     0
102
RTVSPropertyOp53
 70
     1
102
RTVSPropertyOp54
 70
     1
102
RTVSPropertyOp55
 70
     1
102
RTVSPropertyOp56
 70
     1
102
RTVSPropertyOp57
 70
     1
102
RTVSPost2010Prop28
280
     0
102
RTVSPost2010PropOp28
 70
     1
102
RTVSPost2010Prop29
280
     1
102
RTVSPost2010PropOp29
 70
     1
102
RTVSPost2010Prop30
280
     1
102
RTVSPost2010PropOp30
 70
     1
102
RTVSPost2010Prop31
280
     0
102
RTVSPost2010PropOp31
 70
     1
102
RTVSPost2010Prop32
280
     0
102
RTVSPost2010PropOp32
 70
     1
102
RTVSPost2010Prop33
280
     0
102
RTVSPost2010PropOp33
 70
     1
102
RTVSPost2010Prop34
280
     0
102
RTVSPost2010PropOp34
 70
     1
102
RTVSPost2010Prop35
280
     0
102
RTVSPost2010PropOp35
 70
     1
102
RTVSPost2010Prop36
280
     0
102
RTVSPost2010PropOp36
 70
     1
102
RTVSPost2010Prop37
 90
       50
102
RTVSPost2010PropOp37
 70
     1
102
RTVSPost2010Prop38
140
0.0
102
RTVSPost2010PropOp38
 70
     1
102
RTVSPost2010Prop39
140
1.0
102
RTVSPost2010PropOp39
 70
     1
102
RTVSPost2010Prop40
 90
        0
102
RTVSPost2010PropOp40
 70
     1
102
RTVSPost2010Prop41ColorIndex
 90
       18
102
RTVSPost2010Prop41ColorRGB
 90
        0
102
RTVSPost2010PropOp41
 70
     1
102
RTVSPost2010Prop42
 90
       50
102
RTVSPost2010PropOp42
 70
     1
102
RTVSPost2010Prop43
 90
        3
102
RTVSPost2010PropOp43
 70
     1
102
RTVSPost2010Prop44ColorIndex
 90
        5
102
RTVSPost2010Prop44ColorRGB
 90
      255
102
RTVSPost2010PropOp44
 70
     1
102
RTVSPost2010Prop45
280
     0
102
RTVSPost2010PropOp45
 70
     1
102
RTVSPost2010Prop46
 90
       50
102
RTVSPost2010PropOp46
 70
     1
102
RTVSPost2010Prop47
 90
       50
102
RTVSPost2010PropOp47
 70
     1
102
RTVSPost2010Prop48
 90
       50
102
RTVSPost2010PropOp48
 70
     1
102
RTVSPost2010Prop49
280
     0
102
RTVSPost2010PropOp49
 70
     1
102
RTVSPost2010Prop50
 90
       50
102
RTVSPost2010PropOp50
 70
     1
102
RTVSPost2010Prop51ColorIndex
 90
      256
102
RTVSPost2010Prop51ColorRGB
 90
-16777216
102
RTVSPost2010PropOp51
 70
     0
102
RTVSPost2010Prop52
140
1.0
102
RTVSPost2010PropOp52
 70
     0
102
RTVSPost2010Prop53
 90
        2
102
RTVSPost2010PropOp53
 70
     1
102
RTVSPost2010Prop54
  1
strokes_ogs.tif
102
RTVSPost2010PropOp54
 70
     1
102
RTVSPost2010Prop55
280
     0
102
RTVSPost2010PropOp55
 70
     1
102
RTVSPost2010Prop56
140
1.0
102
RTVSPost2010PropOp56
 70
     1
102
RTVSPost2010Prop57
140
1.0
102
RTVSPost2010PropOp57
 70
     1
  0
XRECORD
  5
456
102
{ACAD_REACTORS
330
455
102
}
330
455
100
AcDbXrecord
280
     1
102
RTVSPropertyOp0
 70
     1
102
RTVSPropertyOp1
 70
     1
102
RTVSPropertyOp2
 70
     1
102
RTVSPropertyOp3
 70
     1
102
RTVSPropertyOp4
 70
     1
102
RTVSPropertyOp5
 70
     1
102
RTVSPropertyOp6
 70
     1
102
RTVSPropertyOp7
 70
     1
102
RTVSPropertyOp8
 70
     1
102
RTVSPropertyOp9
 70
     1
102
RTVSPropertyOp10
 70
     1
102
RTVSPropertyOp11
 70
     1
102
RTVSPropertyOp12
 70
     1
102
RTVSPropertyOp13
 70
     1
102
RTVSPropertyOp14
 70
     1
102
RTVSPropertyOp15
 70
     1
102
RTVSPropertyOp16
 70
     1
102
RTVSPropertyOp17
 70
     1
102
RTVSPropertyOp18
 70
     1
102
RTVSPropertyOp19
 70
     1
102
RTVSPropertyOp20
 70
     1
102
RTVSPropertyOp21
 70
     1
102
RTVSPropertyOp22
 70
     1
102
RTVSPropertyOp23
 70
     1
102
RTVSPropertyOp24
 70
     1
102
RTVSPropertyOp25
 70
     1
102
RTVSPropertyOp26
 70
     1
102
RTVSPropertyOp27
 70
     1
102
RTVSPropertyOp28
 70
     1
102
RTVSPropertyOp29
 70
     1
102
RTVSPropertyOp30
 70
     1
102
RTVSPropertyOp31
 70
     1
102
RTVSPropertyOp32
 70
     1
102
RTVSPropertyOp33
 70
     1
102
RTVSPropertyOp34
 70
     1
102
RTVSPropertyOp35
 70
     1
102
RTVSPropertyOp36
 70
     1
102
RTVSPropertyOp37
 70
     1
102
RTVSPropertyOp38
 70
     1
102
RTVSPropertyOp39
 70
     1
102
RTVSPropertyOp40
 70
     1
102
RTVSPropertyOp41
 70
     1
102
RTVSPropertyOp42
 70
     1
102
RTVSPropertyOp43
 70
     1
102
RTVSPropertyOp44
 70
     1
102
RTVSPropertyOp45
 70
     1
102
RTVSPropertyOp46
 70
     1
102
RTVSPropertyOp47
 70
     1
102
RTVSPropertyOp48
 70
     1
102
RTVSPropertyOp49
 70
     1
102
RTVSPropertyOp50
 70
     1
102
RTVSPropertyOp51
 70
     0
102
RTVSPropertyOp52
 70
     0
102
RTVSPropertyOp53
 70
     1
102
RTVSPropertyOp54
 70
     1
102
RTVSPropertyOp55
 70
     1
102
RTVSPropertyOp56
 70
     1
102
RTVSPropertyOp57
 70
     1
102
RTVSPost2010Prop28
280
     0
102
RTVSPost2010PropOp28
 70
     1
102
RTVSPost2010Prop29
280
     1
102
RTVSPost2010PropOp29
 70
     1
102
RTVSPost2010Prop30
280
     1
102
RTVSPost2010PropOp30
 70
     1
102
RTVSPost2010Prop31
280
     0
102
RTVSPost2010PropOp31
 70
     1
102
RTVSPost2010Prop32
280
     0
102
RTVSPost2010PropOp32
 70
     1
102
RTVSPost2010Prop33
280
     0
102
RTVSPost2010PropOp33
 70
     1
102
RTVSPost2010Prop34
280
     0
102
RTVSPost2010PropOp34
 70
     1
102
RTVSPost2010Prop35
280
     0
102
RTVSPost2010PropOp35
 70
     1
102
RTVSPost2010Prop36
280
     0
102
RTVSPost2010PropOp36
 70
     1
102
RTVSPost2010Prop37
 90
       50
102
RTVSPost2010PropOp37
 70
     1
102
RTVSPost2010Prop38
140
0.0
102
RTVSPost2010PropOp38
 70
     1
102
RTVSPost2010Prop39
140
1.0
102
RTVSPost2010PropOp39
 70
     1
102
RTVSPost2010Prop40
 90
        0
102
RTVSPost2010PropOp40
 70
     1
102
RTVSPost2010Prop41ColorIndex
 90
       18
102
RTVSPost2010Prop41ColorRGB
 90
        0
102
RTVSPost2010PropOp41
 70
     1
102
RTVSPost2010Prop42
 90
       50
102
RTVSPost2010PropOp42
 70
     1
102
RTVSPost2010Prop43
 90
        3
102
RTVSPost2010PropOp43
 70
     1
102
RTVSPost2010Prop44ColorIndex
 90
        5
102
RTVSPost2010Prop44ColorRGB
 90
      255
102
RTVSPost2010PropOp44
 70
     1
102
RTVSPost2010Prop45
280
     0
102
RTVSPost2010PropOp45
 70
     1
102
RTVSPost2010Prop46
 90
       50
102
RTVSPost2010PropOp46
 70
     1
102
RTVSPost2010Prop47
 90
       50
102
RTVSPost2010PropOp47
 70
     1
102
RTVSPost2010Prop48
 90
       50
102
RTVSPost2010PropOp48
 70
     1
102
RTVSPost2010Prop49
280
     0
102
RTVSPost2010PropOp49
 70
     1
102
RTVSPost2010Prop50
 90
       50
102
RTVSPost2010PropOp50
 70
     1
102
RTVSPost2010Prop51ColorIndex
 90
      256
102
RTVSPost2010Prop51ColorRGB
 90
-16777216
102
RTVSPost2010PropOp51
 70
     0
102
RTVSPost2010Prop52
140
1.0
102
RTVSPost2010PropOp52
 70
     0
102
RTVSPost2010Prop53
 90
        2
102
RTVSPost2010PropOp53
 70
     1
102
RTVSPost2010Prop54
  1
strokes_ogs.tif
102
RTVSPost2010PropOp54
 70
     1
102
RTVSPost2010Prop55
280
     0
102
RTVSPost2010PropOp55
 70
     1
102
RTVSPost2010Prop56
140
1.0
102
RTVSPost2010PropOp56
 70
     1
102
RTVSPost2010Prop57
140
1.0
102
RTVSPost2010PropOp57
 70
     1
  0
XRECORD
  5
450
102
{ACAD_REACTORS
330
44F
102
}
330
44F
100
AcDbXrecord
280
     1
102
RTVSPropertyOp0
 70
     1
102
RTVSPropertyOp1
 70
     1
102
RTVSPropertyOp2
 70
     1
102
RTVSPropertyOp3
 70
     1
102
RTVSPropertyOp4
 70
     1
102
RTVSPropertyOp5
 70
     1
102
RTVSPropertyOp6
 70
     1
102
RTVSPropertyOp7
 70
     1
102
RTVSPropertyOp8
 70
     1
102
RTVSPropertyOp9
 70
     1
102
RTVSPropertyOp10
 70
     1
102
RTVSPropertyOp11
 70
     1
102
RTVSPropertyOp12
 70
     1
102
RTVSPropertyOp13
 70
     1
102
RTVSPropertyOp14
 70
     1
102
RTVSPropertyOp15
 70
     1
102
RTVSPropertyOp16
 70
     1
102
RTVSPropertyOp17
 70
     1
102
RTVSPropertyOp18
 70
     1
102
RTVSPropertyOp19
 70
     1
102
RTVSPropertyOp20
 70
     1
102
RTVSPropertyOp21
 70
     1
102
RTVSPropertyOp22
 70
     1
102
RTVSPropertyOp23
 70
     1
102
RTVSPropertyOp24
 70
     1
102
RTVSPropertyOp25
 70
     1
102
RTVSPropertyOp26
 70
     1
102
RTVSPropertyOp27
 70
     1
102
RTVSPropertyOp28
 70
     1
102
RTVSPropertyOp29
 70
     1
102
RTVSPropertyOp30
 70
     1
102
RTVSPropertyOp31
 70
     1
102
RTVSPropertyOp32
 70
     1
102
RTVSPropertyOp33
 70
     1
102
RTVSPropertyOp34
 70
     1
102
RTVSPropertyOp35
 70
     1
102
RTVSPropertyOp36
 70
     1
102
RTVSPropertyOp37
 70
     1
102
RTVSPropertyOp38
 70
     1
102
RTVSPropertyOp39
 70
     1
102
RTVSPropertyOp40
 70
     1
102
RTVSPropertyOp41
 70
     1
102
RTVSPropertyOp42
 70
     1
102
RTVSPropertyOp43
 70
     1
102
RTVSPropertyOp44
 70
     1
102
RTVSPropertyOp45
 70
     1
102
RTVSPropertyOp46
 70
     1
102
RTVSPropertyOp47
 70
     1
102
RTVSPropertyOp48
 70
     1
102
RTVSPropertyOp49
 70
     1
102
RTVSPropertyOp50
 70
     1
102
RTVSPropertyOp51
 70
     0
102
RTVSPropertyOp52
 70
     0
102
RTVSPropertyOp53
 70
     1
102
RTVSPropertyOp54
 70
     1
102
RTVSPropertyOp55
 70
     1
102
RTVSPropertyOp56
 70
     1
102
RTVSPropertyOp57
 70
     1
102
RTVSPost2010Prop28
280
     0
102
RTVSPost2010PropOp28
 70
     1
102
RTVSPost2010Prop29
280
     1
102
RTVSPost2010PropOp29
 70
     1
102
RTVSPost2010Prop30
280
     1
102
RTVSPost2010PropOp30
 70
     1
102
RTVSPost2010Prop31
280
     0
102
RTVSPost2010PropOp31
 70
     1
102
RTVSPost2010Prop32
280
     0
102
RTVSPost2010PropOp32
 70
     1
102
RTVSPost2010Prop33
280
     0
102
RTVSPost2010PropOp33
 70
     1
102
RTVSPost2010Prop34
280
     0
102
RTVSPost2010PropOp34
 70
     1
102
RTVSPost2010Prop35
280
     0
102
RTVSPost2010PropOp35
 70
     1
102
RTVSPost2010Prop36
280
     0
102
RTVSPost2010PropOp36
 70
     1
102
RTVSPost2010Prop37
 90
       50
102
RTVSPost2010PropOp37
 70
     1
102
RTVSPost2010Prop38
140
0.0
102
RTVSPost2010PropOp38
 70
     1
102
RTVSPost2010Prop39
140
1.0
102
RTVSPost2010PropOp39
 70
     1
102
RTVSPost2010Prop40
 90
        0
102
RTVSPost2010PropOp40
 70
     1
102
RTVSPost2010Prop41ColorIndex
 90
       18
102
RTVSPost2010Prop41ColorRGB
 90
        0
102
RTVSPost2010PropOp41
 70
     1
102
RTVSPost2010Prop42
 90
       50
102
RTVSPost2010PropOp42
 70
     1
102
RTVSPost2010Prop43
 90
        3
102
RTVSPost2010PropOp43
 70
     1
102
RTVSPost2010Prop44ColorIndex
 90
        5
102
RTVSPost2010Prop44ColorRGB
 90
      255
102
RTVSPost2010PropOp44
 70
     1
102
RTVSPost2010Prop45
280
     0
102
RTVSPost2010PropOp45
 70
     1
102
RTVSPost2010Prop46
 90
       50
102
RTVSPost2010PropOp46
 70
     1
102
RTVSPost2010Prop47
 90
       50
102
RTVSPost2010PropOp47
 70
     1
102
RTVSPost2010Prop48
 90
       50
102
RTVSPost2010PropOp48
 70
     1
102
RTVSPost2010Prop49
280
     0
102
RTVSPost2010PropOp49
 70
     1
102
RTVSPost2010Prop50
 90
       50
102
RTVSPost2010PropOp50
 70
     1
102
RTVSPost2010Prop51ColorIndex
 90
      256
102
RTVSPost2010Prop51ColorRGB
 90
-16777216
102
RTVSPost2010PropOp51
 70
     0
102
RTVSPost2010Prop52
140
1.0
102
RTVSPost2010PropOp52
 70
     0
102
RTVSPost2010Prop53
 90
        2
102
RTVSPost2010PropOp53
 70
     1
102
RTVSPost2010Prop54
  1
strokes_ogs.tif
102
RTVSPost2010PropOp54
 70
     1
102
RTVSPost2010Prop55
280
     0
102
RTVSPost2010PropOp55
 70
     1
102
RTVSPost2010Prop56
140
1.0
102
RTVSPost2010PropOp56
 70
     1
102
RTVSPost2010Prop57
140
1.0
102
RTVSPost2010PropOp57
 70
     1
  0
XRECORD
  5
452
102
{ACAD_REACTORS
330
451
102
}
330
451
100
AcDbXrecord
280
     1
102
RTVSPropertyOp0
 70
     1
102
RTVSPropertyOp1
 70
     1
102
RTVSPropertyOp2
 70
     1
102
RTVSPropertyOp3
 70
     1
102
RTVSPropertyOp4
 70
     1
102
RTVSPropertyOp5
 70
     1
102
RTVSPropertyOp6
 70
     1
102
RTVSPropertyOp7
 70
     1
102
RTVSPropertyOp8
 70
     1
102
RTVSPropertyOp9
 70
     1
102
RTVSPropertyOp10
 70
     1
102
RTVSPropertyOp11
 70
     1
102
RTVSPropertyOp12
 70
     1
102
RTVSPropertyOp13
 70
     1
102
RTVSPropertyOp14
 70
     1
102
RTVSPropertyOp15
 70
     1
102
RTVSPropertyOp16
 70
     1
102
RTVSPropertyOp17
 70
     1
102
RTVSPropertyOp18
 70
     1
102
RTVSPropertyOp19
 70
     1
102
RTVSPropertyOp20
 70
     1
102
RTVSPropertyOp21
 70
     1
102
RTVSPropertyOp22
 70
     1
102
RTVSPropertyOp23
 70
     1
102
RTVSPropertyOp24
 70
     1
102
RTVSPropertyOp25
 70
     1
102
RTVSPropertyOp26
 70
     1
102
RTVSPropertyOp27
 70
     1
102
RTVSPropertyOp28
 70
     1
102
RTVSPropertyOp29
 70
     1
102
RTVSPropertyOp30
 70
     1
102
RTVSPropertyOp31
 70
     1
102
RTVSPropertyOp32
 70
     1
102
RTVSPropertyOp33
 70
     1
102
RTVSPropertyOp34
 70
     1
102
RTVSPropertyOp35
 70
     1
102
RTVSPropertyOp36
 70
     1
102
RTVSPropertyOp37
 70
     1
102
RTVSPropertyOp38
 70
     1
102
RTVSPropertyOp39
 70
     1
102
RTVSPropertyOp40
 70
     1
102
RTVSPropertyOp41
 70
     1
102
RTVSPropertyOp42
 70
     1
102
RTVSPropertyOp43
 70
     1
102
RTVSPropertyOp44
 70
     1
102
RTVSPropertyOp45
 70
     1
102
RTVSPropertyOp46
 70
     1
102
RTVSPropertyOp47
 70
     1
102
RTVSPropertyOp48
 70
     1
102
RTVSPropertyOp49
 70
     1
102
RTVSPropertyOp50
 70
     1
102
RTVSPropertyOp51
 70
     0
102
RTVSPropertyOp52
 70
     0
102
RTVSPropertyOp53
 70
     1
102
RTVSPropertyOp54
 70
     1
102
RTVSPropertyOp55
 70
     1
102
RTVSPropertyOp56
 70
     1
102
RTVSPropertyOp57
 70
     1
102
RTVSPost2010Prop28
280
     0
102
RTVSPost2010PropOp28
 70
     1
102
RTVSPost2010Prop29
280
     1
102
RTVSPost2010PropOp29
 70
     1
102
RTVSPost2010Prop30
280
     1
102
RTVSPost2010PropOp30
 70
     1
102
RTVSPost2010Prop31
280
     0
102
RTVSPost2010PropOp31
 70
     1
102
RTVSPost2010Prop32
280
     0
102
RTVSPost2010PropOp32
 70
     1
102
RTVSPost2010Prop33
280
     0
102
RTVSPost2010PropOp33
 70
     1
102
RTVSPost2010Prop34
280
     0
102
RTVSPost2010PropOp34
 70
     1
102
RTVSPost2010Prop35
280
     0
102
RTVSPost2010PropOp35
 70
     1
102
RTVSPost2010Prop36
280
     0
102
RTVSPost2010PropOp36
 70
     1
102
RTVSPost2010Prop37
 90
       50
102
RTVSPost2010PropOp37
 70
     1
102
RTVSPost2010Prop38
140
0.0
102
RTVSPost2010PropOp38
 70
     1
102
RTVSPost2010Prop39
140
1.0
102
RTVSPost2010PropOp39
 70
     1
102
RTVSPost2010Prop40
 90
        0
102
RTVSPost2010PropOp40
 70
     1
102
RTVSPost2010Prop41ColorIndex
 90
       18
102
RTVSPost2010Prop41ColorRGB
 90
        0
102
RTVSPost2010PropOp41
 70
     1
102
RTVSPost2010Prop42
 90
       50
102
RTVSPost2010PropOp42
 70
     1
102
RTVSPost2010Prop43
 90
        3
102
RTVSPost2010PropOp43
 70
     1
102
RTVSPost2010Prop44ColorIndex
 90
        5
102
RTVSPost2010Prop44ColorRGB
 90
      255
102
RTVSPost2010PropOp44
 70
     1
102
RTVSPost2010Prop45
280
     0
102
RTVSPost2010PropOp45
 70
     1
102
RTVSPost2010Prop46
 90
       50
102
RTVSPost2010PropOp46
 70
     1
102
RTVSPost2010Prop47
 90
       50
102
RTVSPost2010PropOp47
 70
     1
102
RTVSPost2010Prop48
 90
       50
102
RTVSPost2010PropOp48
 70
     1
102
RTVSPost2010Prop49
280
     0
102
RTVSPost2010PropOp49
 70
     1
102
RTVSPost2010Prop50
 90
       50
102
RTVSPost2010PropOp50
 70
     1
102
RTVSPost2010Prop51ColorIndex
 90
      256
102
RTVSPost2010Prop51ColorRGB
 90
-16777216
102
RTVSPost2010PropOp51
 70
     0
102
RTVSPost2010Prop52
140
1.0
102
RTVSPost2010PropOp52
 70
     0
102
RTVSPost2010Prop53
 90
        2
102
RTVSPost2010PropOp53
 70
     1
102
RTVSPost2010Prop54
  1
strokes_ogs.tif
102
RTVSPost2010PropOp54
 70
     1
102
RTVSPost2010Prop55
280
     0
102
RTVSPost2010PropOp55
 70
     1
102
RTVSPost2010Prop56
140
1.0
102
RTVSPost2010PropOp56
 70
     1
102
RTVSPost2010Prop57
140
1.0
102
RTVSPost2010PropOp57
 70
     1
  0
XRECORD
  5
442
102
{ACAD_REACTORS
330
441
102
}
330
441
100
AcDbXrecord
280
     1
102
RTVSPropertyOp0
 70
     1
102
RTVSPropertyOp1
 70
     1
102
RTVSPropertyOp2
 70
     1
102
RTVSPropertyOp3
 70
     1
102
RTVSPropertyOp4
 70
     1
102
RTVSPropertyOp5
 70
     1
102
RTVSPropertyOp6
 70
     1
102
RTVSPropertyOp7
 70
     1
102
RTVSPropertyOp8
 70
     1
102
RTVSPropertyOp9
 70
     1
102
RTVSPropertyOp10
 70
     1
102
RTVSPropertyOp11
 70
     1
102
RTVSPropertyOp12
 70
     1
102
RTVSPropertyOp13
 70
     1
102
RTVSPropertyOp14
 70
     1
102
RTVSPropertyOp15
 70
     1
102
RTVSPropertyOp16
 70
     1
102
RTVSPropertyOp17
 70
     1
102
RTVSPropertyOp18
 70
     1
102
RTVSPropertyOp19
 70
     1
102
RTVSPropertyOp20
 70
     1
102
RTVSPropertyOp21
 70
     1
102
RTVSPropertyOp22
 70
     1
102
RTVSPropertyOp23
 70
     1
102
RTVSPropertyOp24
 70
     1
102
RTVSPropertyOp25
 70
     1
102
RTVSPropertyOp26
 70
     1
102
RTVSPropertyOp27
 70
     1
102
RTVSPropertyOp28
 70
     1
102
RTVSPropertyOp29
 70
     1
102
RTVSPropertyOp30
 70
     1
102
RTVSPropertyOp31
 70
     1
102
RTVSPropertyOp32
 70
     1
102
RTVSPropertyOp33
 70
     1
102
RTVSPropertyOp34
 70
     1
102
RTVSPropertyOp35
 70
     1
102
RTVSPropertyOp36
 70
     1
102
RTVSPropertyOp37
 70
     1
102
RTVSPropertyOp38
 70
     1
102
RTVSPropertyOp39
 70
     1
102
RTVSPropertyOp40
 70
     1
102
RTVSPropertyOp41
 70
     1
102
RTVSPropertyOp42
 70
     1
102
RTVSPropertyOp43
 70
     1
102
RTVSPropertyOp44
 70
     1
102
RTVSPropertyOp45
 70
     1
102
RTVSPropertyOp46
 70
     1
102
RTVSPropertyOp47
 70
     1
102
RTVSPropertyOp48
 70
     1
102
RTVSPropertyOp49
 70
     1
102
RTVSPropertyOp50
 70
     1
102
RTVSPropertyOp51
 70
     0
102
RTVSPropertyOp52
 70
     0
102
RTVSPropertyOp53
 70
     1
102
RTVSPropertyOp54
 70
     1
102
RTVSPropertyOp55
 70
     1
102
RTVSPropertyOp56
 70
     1
102
RTVSPropertyOp57
 70
     1
102
RTVSPost2010Prop28
280
     0
102
RTVSPost2010PropOp28
 70
     1
102
RTVSPost2010Prop29
280
     1
102
RTVSPost2010PropOp29
 70
     1
102
RTVSPost2010Prop30
280
     1
102
RTVSPost2010PropOp30
 70
     1
102
RTVSPost2010Prop31
280
     0
102
RTVSPost2010PropOp31
 70
     1
102
RTVSPost2010Prop32
280
     0
102
RTVSPost2010PropOp32
 70
     1
102
RTVSPost2010Prop33
280
     0
102
RTVSPost2010PropOp33
 70
     1
102
RTVSPost2010Prop34
280
     0
102
RTVSPost2010PropOp34
 70
     1
102
RTVSPost2010Prop35
280
     0
102
RTVSPost2010PropOp35
 70
     1
102
RTVSPost2010Prop36
280
     0
102
RTVSPost2010PropOp36
 70
     1
102
RTVSPost2010Prop37
 90
       50
102
RTVSPost2010PropOp37
 70
     1
102
RTVSPost2010Prop38
140
0.0
102
RTVSPost2010PropOp38
 70
     1
102
RTVSPost2010Prop39
140
1.0
102
RTVSPost2010PropOp39
 70
     1
102
RTVSPost2010Prop40
 90
        0
102
RTVSPost2010PropOp40
 70
     1
102
RTVSPost2010Prop41ColorIndex
 90
       18
102
RTVSPost2010Prop41ColorRGB
 90
        0
102
RTVSPost2010PropOp41
 70
     1
102
RTVSPost2010Prop42
 90
       50
102
RTVSPost2010PropOp42
 70
     1
102
RTVSPost2010Prop43
 90
        3
102
RTVSPost2010PropOp43
 70
     1
102
RTVSPost2010Prop44ColorIndex
 90
        5
102
RTVSPost2010Prop44ColorRGB
 90
      255
102
RTVSPost2010PropOp44
 70
     1
102
RTVSPost2010Prop45
280
     0
102
RTVSPost2010PropOp45
 70
     1
102
RTVSPost2010Prop46
 90
       50
102
RTVSPost2010PropOp46
 70
     1
102
RTVSPost2010Prop47
 90
       50
102
RTVSPost2010PropOp47
 70
     1
102
RTVSPost2010Prop48
 90
       50
102
RTVSPost2010PropOp48
 70
     1
102
RTVSPost2010Prop49
280
     0
102
RTVSPost2010PropOp49
 70
     1
102
RTVSPost2010Prop50
 90
       50
102
RTVSPost2010PropOp50
 70
     1
102
RTVSPost2010Prop51ColorIndex
 90
      256
102
RTVSPost2010Prop51ColorRGB
 90
-16777216
102
RTVSPost2010PropOp51
 70
     0
102
RTVSPost2010Prop52
140
1.0
102
RTVSPost2010PropOp52
 70
     0
102
RTVSPost2010Prop53
 90
        2
102
RTVSPost2010PropOp53
 70
     1
102
RTVSPost2010Prop54
  1
strokes_ogs.tif
102
RTVSPost2010PropOp54
 70
     1
102
RTVSPost2010Prop55
280
     0
102
RTVSPost2010PropOp55
 70
     1
102
RTVSPost2010Prop56
140
1.0
102
RTVSPost2010PropOp56
 70
     1
102
RTVSPost2010Prop57
140
1.0
102
RTVSPost2010PropOp57
 70
     1
  0
XRECORD
  5
434
102
{ACAD_REACTORS
330
433
102
}
330
433
100
AcDbXrecord
280
     1
102
RTVSPropertyOp0
 70
     1
102
RTVSPropertyOp1
 70
     1
102
RTVSPropertyOp2
 70
     1
102
RTVSPropertyOp3
 70
     1
102
RTVSPropertyOp4
 70
     1
102
RTVSPropertyOp5
 70
     1
102
RTVSPropertyOp6
 70
     1
102
RTVSPropertyOp7
 70
     1
102
RTVSPropertyOp8
 70
     1
102
RTVSPropertyOp9
 70
     1
102
RTVSPropertyOp10
 70
     1
102
RTVSPropertyOp11
 70
     1
102
RTVSPropertyOp12
 70
     1
102
RTVSPropertyOp13
 70
     1
102
RTVSPropertyOp14
 70
     1
102
RTVSPropertyOp15
 70
     1
102
RTVSPropertyOp16
 70
     1
102
RTVSPropertyOp17
 70
     1
102
RTVSPropertyOp18
 70
     1
102
RTVSPropertyOp19
 70
     1
102
RTVSPropertyOp20
 70
     1
102
RTVSPropertyOp21
 70
     1
102
RTVSPropertyOp22
 70
     1
102
RTVSPropertyOp23
 70
     1
102
RTVSPropertyOp24
 70
     1
102
RTVSPropertyOp25
 70
     1
102
RTVSPropertyOp26
 70
     1
102
RTVSPropertyOp27
 70
     1
102
RTVSPropertyOp28
 70
     1
102
RTVSPropertyOp29
 70
     1
102
RTVSPropertyOp30
 70
     1
102
RTVSPropertyOp31
 70
     1
102
RTVSPropertyOp32
 70
     1
102
RTVSPropertyOp33
 70
     1
102
RTVSPropertyOp34
 70
     1
102
RTVSPropertyOp35
 70
     1
102
RTVSPropertyOp36
 70
     1
102
RTVSPropertyOp37
 70
     1
102
RTVSPropertyOp38
 70
     1
102
RTVSPropertyOp39
 70
     1
102
RTVSPropertyOp40
 70
     1
102
RTVSPropertyOp41
 70
     1
102
RTVSPropertyOp42
 70
     1
102
RTVSPropertyOp43
 70
     1
102
RTVSPropertyOp44
 70
     1
102
RTVSPropertyOp45
 70
     1
102
RTVSPropertyOp46
 70
     1
102
RTVSPropertyOp47
 70
     1
102
RTVSPropertyOp48
 70
     1
102
RTVSPropertyOp49
 70
     1
102
RTVSPropertyOp50
 70
     1
102
RTVSPropertyOp51
 70
     0
102
RTVSPropertyOp52
 70
     0
102
RTVSPropertyOp53
 70
     1
102
RTVSPropertyOp54
 70
     1
102
RTVSPropertyOp55
 70
     1
102
RTVSPropertyOp56
 70
     1
102
RTVSPropertyOp57
 70
     1
102
RTVSPost2010Prop28
280
     0
102
RTVSPost2010PropOp28
 70
     1
102
RTVSPost2010Prop29
280
     1
102
RTVSPost2010PropOp29
 70
     1
102
RTVSPost2010Prop30
280
     1
102
RTVSPost2010PropOp30
 70
     1
102
RTVSPost2010Prop31
280
     0
102
RTVSPost2010PropOp31
 70
     1
102
RTVSPost2010Prop32
280
     0
102
RTVSPost2010PropOp32
 70
     1
102
RTVSPost2010Prop33
280
     0
102
RTVSPost2010PropOp33
 70
     1
102
RTVSPost2010Prop34
280
     0
102
RTVSPost2010PropOp34
 70
     1
102
RTVSPost2010Prop35
280
     0
102
RTVSPost2010PropOp35
 70
     1
102
RTVSPost2010Prop36
280
     0
102
RTVSPost2010PropOp36
 70
     1
102
RTVSPost2010Prop37
 90
       50
102
RTVSPost2010PropOp37
 70
     1
102
RTVSPost2010Prop38
140
0.0
102
RTVSPost2010PropOp38
 70
     1
102
RTVSPost2010Prop39
140
1.0
102
RTVSPost2010PropOp39
 70
     1
102
RTVSPost2010Prop40
 90
        0
102
RTVSPost2010PropOp40
 70
     1
102
RTVSPost2010Prop41ColorIndex
 90
       18
102
RTVSPost2010Prop41ColorRGB
 90
        0
102
RTVSPost2010PropOp41
 70
     1
102
RTVSPost2010Prop42
 90
       50
102
RTVSPost2010PropOp42
 70
     1
102
RTVSPost2010Prop43
 90
        3
102
RTVSPost2010PropOp43
 70
     1
102
RTVSPost2010Prop44ColorIndex
 90
        5
102
RTVSPost2010Prop44ColorRGB
 90
      255
102
RTVSPost2010PropOp44
 70
     1
102
RTVSPost2010Prop45
280
     0
102
RTVSPost2010PropOp45
 70
     1
102
RTVSPost2010Prop46
 90
       50
102
RTVSPost2010PropOp46
 70
     1
102
RTVSPost2010Prop47
 90
       50
102
RTVSPost2010PropOp47
 70
     1
102
RTVSPost2010Prop48
 90
       50
102
RTVSPost2010PropOp48
 70
     1
102
RTVSPost2010Prop49
280
     0
102
RTVSPost2010PropOp49
 70
     1
102
RTVSPost2010Prop50
 90
       50
102
RTVSPost2010PropOp50
 70
     1
102
RTVSPost2010Prop51ColorIndex
 90
      256
102
RTVSPost2010Prop51ColorRGB
 90
-16777216
102
RTVSPost2010PropOp51
 70
     0
102
RTVSPost2010Prop52
140
1.0
102
RTVSPost2010PropOp52
 70
     0
102
RTVSPost2010Prop53
 90
        2
102
RTVSPost2010PropOp53
 70
     1
102
RTVSPost2010Prop54
  1
strokes_ogs.tif
102
RTVSPost2010PropOp54
 70
     1
102
RTVSPost2010Prop55
280
     0
102
RTVSPost2010PropOp55
 70
     1
102
RTVSPost2010Prop56
140
1.0
102
RTVSPost2010PropOp56
 70
     1
102
RTVSPost2010Prop57
140
1.0
102
RTVSPost2010PropOp57
 70
     1
  0
XRECORD
  5
454
102
{ACAD_REACTORS
330
453
102
}
330
453
100
AcDbXrecord
280
     1
102
RTVSPropertyOp0
 70
     1
102
RTVSPropertyOp1
 70
     1
102
RTVSPropertyOp2
 70
     1
102
RTVSPropertyOp3
 70
     1
102
RTVSPropertyOp4
 70
     1
102
RTVSPropertyOp5
 70
     1
102
RTVSPropertyOp6
 70
     1
102
RTVSPropertyOp7
 70
     1
102
RTVSPropertyOp8
 70
     1
102
RTVSPropertyOp9
 70
     1
102
RTVSPropertyOp10
 70
     1
102
RTVSPropertyOp11
 70
     1
102
RTVSPropertyOp12
 70
     1
102
RTVSPropertyOp13
 70
     1
102
RTVSPropertyOp14
 70
     1
102
RTVSPropertyOp15
 70
     1
102
RTVSPropertyOp16
 70
     1
102
RTVSPropertyOp17
 70
     1
102
RTVSPropertyOp18
 70
     1
102
RTVSPropertyOp19
 70
     1
102
RTVSPropertyOp20
 70
     1
102
RTVSPropertyOp21
 70
     1
102
RTVSPropertyOp22
 70
     1
102
RTVSPropertyOp23
 70
     1
102
RTVSPropertyOp24
 70
     1
102
RTVSPropertyOp25
 70
     1
102
RTVSPropertyOp26
 70
     1
102
RTVSPropertyOp27
 70
     1
102
RTVSPropertyOp28
 70
     1
102
RTVSPropertyOp29
 70
     1
102
RTVSPropertyOp30
 70
     1
102
RTVSPropertyOp31
 70
     1
102
RTVSPropertyOp32
 70
     1
102
RTVSPropertyOp33
 70
     1
102
RTVSPropertyOp34
 70
     1
102
RTVSPropertyOp35
 70
     1
102
RTVSPropertyOp36
 70
     1
102
RTVSPropertyOp37
 70
     1
102
RTVSPropertyOp38
 70
     1
102
RTVSPropertyOp39
 70
     1
102
RTVSPropertyOp40
 70
     1
102
RTVSPropertyOp41
 70
     1
102
RTVSPropertyOp42
 70
     1
102
RTVSPropertyOp43
 70
     1
102
RTVSPropertyOp44
 70
     1
102
RTVSPropertyOp45
 70
     1
102
RTVSPropertyOp46
 70
     1
102
RTVSPropertyOp47
 70
     1
102
RTVSPropertyOp48
 70
     1
102
RTVSPropertyOp49
 70
     1
102
RTVSPropertyOp50
 70
     1
102
RTVSPropertyOp51
 70
     0
102
RTVSPropertyOp52
 70
     0
102
RTVSPropertyOp53
 70
     1
102
RTVSPropertyOp54
 70
     1
102
RTVSPropertyOp55
 70
     1
102
RTVSPropertyOp56
 70
     1
102
RTVSPropertyOp57
 70
     1
102
RTVSPost2010Prop28
280
     0
102
RTVSPost2010PropOp28
 70
     1
102
RTVSPost2010Prop29
280
     1
102
RTVSPost2010PropOp29
 70
     1
102
RTVSPost2010Prop30
280
     1
102
RTVSPost2010PropOp30
 70
     1
102
RTVSPost2010Prop31
280
     0
102
RTVSPost2010PropOp31
 70
     1
102
RTVSPost2010Prop32
280
     0
102
RTVSPost2010PropOp32
 70
     1
102
RTVSPost2010Prop33
280
     0
102
RTVSPost2010PropOp33
 70
     1
102
RTVSPost2010Prop34
280
     0
102
RTVSPost2010PropOp34
 70
     1
102
RTVSPost2010Prop35
280
     0
102
RTVSPost2010PropOp35
 70
     1
102
RTVSPost2010Prop36
280
     0
102
RTVSPost2010PropOp36
 70
     1
102
RTVSPost2010Prop37
 90
       50
102
RTVSPost2010PropOp37
 70
     1
102
RTVSPost2010Prop38
140
0.0
102
RTVSPost2010PropOp38
 70
     1
102
RTVSPost2010Prop39
140
1.0
102
RTVSPost2010PropOp39
 70
     1
102
RTVSPost2010Prop40
 90
        0
102
RTVSPost2010PropOp40
 70
     1
102
RTVSPost2010Prop41ColorIndex
 90
       18
102
RTVSPost2010Prop41ColorRGB
 90
        0
102
RTVSPost2010PropOp41
 70
     1
102
RTVSPost2010Prop42
 90
       50
102
RTVSPost2010PropOp42
 70
     1
102
RTVSPost2010Prop43
 90
        3
102
RTVSPost2010PropOp43
 70
     1
102
RTVSPost2010Prop44ColorIndex
 90
        5
102
RTVSPost2010Prop44ColorRGB
 90
      255
102
RTVSPost2010PropOp44
 70
     1
102
RTVSPost2010Prop45
280
     0
102
RTVSPost2010PropOp45
 70
     1
102
RTVSPost2010Prop46
 90
       50
102
RTVSPost2010PropOp46
 70
     1
102
RTVSPost2010Prop47
 90
       50
102
RTVSPost2010PropOp47
 70
     1
102
RTVSPost2010Prop48
 90
       50
102
RTVSPost2010PropOp48
 70
     1
102
RTVSPost2010Prop49
280
     0
102
RTVSPost2010PropOp49
 70
     1
102
RTVSPost2010Prop50
 90
       50
102
RTVSPost2010PropOp50
 70
     1
102
RTVSPost2010Prop51ColorIndex
 90
      256
102
RTVSPost2010Prop51ColorRGB
 90
-16777216
102
RTVSPost2010PropOp51
 70
     0
102
RTVSPost2010Prop52
140
1.0
102
RTVSPost2010PropOp52
 70
     0
102
RTVSPost2010Prop53
 90
        2
102
RTVSPost2010PropOp53
 70
     1
102
RTVSPost2010Prop54
  1
strokes_ogs.tif
102
RTVSPost2010PropOp54
 70
     1
102
RTVSPost2010Prop55
280
     0
102
RTVSPost2010PropOp55
 70
     1
102
RTVSPost2010Prop56
140
1.0
102
RTVSPost2010PropOp56
 70
     1
102
RTVSPost2010Prop57
140
1.0
102
RTVSPost2010PropOp57
 70
     1
  0
ENDSEC
  0
EOF
